<?xml version="1.0" standalone="no"?>
<!DOCTYPE svg PUBLIC "-//W3C//DTD SVG 1.1//EN" "http://www.w3.org/Graphics/SVG/1.1/DTD/svg11.dtd" >
<svg xmlns="http://www.w3.org/2000/svg" xmlns:xlink="http://www.w3.org/1999/xlink" version="1.1">
<metadata>
Created by FontForge 20170731 at Thu Feb 11 18:00:28 1999
 By Aleksey,,,
Typeface: Copyright (c)1995 International Typeface Corporation. Data: Copyright (c) 1995 Microsoft Corportation. All rights reserved.
</metadata>
<defs>
<font id="ErasITC-Demi" horiz-adv-x="1249" >
  <font-face 
    font-family="Eras Demi ITC"
    font-weight="400"
    font-stretch="normal"
    units-per-em="2048"
    panose-1="2 11 8 5 3 5 4 2 8 4"
    ascent="1638"
    descent="-410"
    x-height="1017"
    cap-height="1365"
    bbox="-346 -512 2479 1841"
    underline-thickness="120"
    underline-position="-334"
    unicode-range="U+0020-F002"
  />
<missing-glyph horiz-adv-x="2048" 
d="M256 0v1536h1536v-1536h-1536zM384 128h1280v1280h-1280v-1280z" />
    <glyph glyph-name=".notdef" horiz-adv-x="2048" 
d="M256 0v1536h1536v-1536h-1536zM384 128h1280v1280h-1280v-1280z" />
    <glyph glyph-name="glyph1" horiz-adv-x="0" 
 />
    <glyph glyph-name="glyph2" horiz-adv-x="512" 
 />
    <glyph glyph-name="space" unicode=" " horiz-adv-x="512" 
 />
    <glyph glyph-name="exclam" unicode="!" horiz-adv-x="641" 
d="M182 399l11 352l15 614q96 -2 151 -2q43 0 145 2l-21 -275l-42 -691q-72 2 -117 2q-64 0 -142 -2zM142 0l6 83q3 36 5 76l5 101q114 -2 157 -2q31 0 149 2q-8 -112 -14 -260l-150 2q-45 0 -158 -2z" />
    <glyph glyph-name="quotedbl" unicode="&#x22;" horiz-adv-x="700" 
d="M141 997q5 104 5 326l1 42q61 -2 99 -2q31 0 95 2q-20 -179 -33 -368q-50 3 -76 3q-36 0 -91 -3zM426 997q4 87 5 200l1 168q61 -2 99 -2q31 0 95 2q-21 -191 -33 -368q-50 3 -76 3q-36 0 -91 -3z" />
    <glyph glyph-name="numbersign" unicode="#" 
d="M296 437l-231 -2q19 83 34 176l231 -2l30 168l-52 -1l-89 -1l-91 -1q17 69 35 176l229 -2l74 417q35 -2 95 -2q63 0 95 2q-16 -83 -78 -418h209l74 418q35 -2 95 -2q63 0 95 2q-21 -106 -77 -417q212 2 229 2q-25 -113 -34 -176l-229 3l-30 -168l230 2q-16 -65 -35 -176
l-228 2l-77 -437q-35 2 -96 2q-63 0 -94 -2l82 438l-107 1l-102 -1l-78 -438q-35 2 -96 2q-63 0 -94 -2zM546 777l-32 -169h210l31 169l-106 1z" />
    <glyph glyph-name="dollar" unicode="$" 
d="M184 314q179 -88 317 -88q50 0 94 18.5t68.5 55t24.5 80.5q0 19 -4.5 38t-17 39t-24 33.5t-19.5 20.5l-225 214q-58 56 -82.5 85.5t-46 69.5t-31.5 80.5t-10 79.5q0 57 20.5 110t60 97.5t89 70t149.5 47.5q2 31 2 71q0 61 -1 125q84 -2 131 -2q51 0 130 2
q-8 -105 -8 -195q63 -7 104 -15.5t98 -24.5q3 -97 15 -244q-145 64 -259 64q-48 0 -87 -16t-62 -50t-23 -72q0 -20 4.5 -38.5t13.5 -35.5t27 -39t30.5 -34.5t65.5 -62.5q160 -149 207 -205.5t69 -114.5t22 -116q0 -50 -15 -97.5t-42 -87t-60 -68t-69.5 -47.5t-108.5 -43
l-2 -110q0 -35 2 -106q-74 2 -126 2q-54 0 -136 -2q7 96 7 195q-86 9 -143.5 22.5t-136.5 42.5q-5 178 -12 251z" />
    <glyph glyph-name="percent" unicode="%" horiz-adv-x="1742" 
d="M403 1380q97 0 167 -47t106.5 -137.5t36.5 -214.5q0 -142 -44 -259.5t-123 -168t-182 -50.5q-74 0 -137 27.5t-103 83t-58 129t-18 152.5q0 133 43 256t126 176t186 53zM394 1240q-47 0 -85.5 -41t-59 -125t-20.5 -184q0 -128 38 -188.5t100 -60.5q24 0 45.5 9.5t43.5 36
t40.5 75t27 107t8.5 120.5q0 125 -39.5 188t-98.5 63zM405 0l397 695l374 670q44 -2 85 -2q36 0 83 2l-274 -477l-413 -739l-78 -149q-45 2 -82 2q-30 0 -92 -2zM1387 861q97 0 165 -42.5t107.5 -131t39.5 -219.5q0 -93 -20.5 -186t-65.5 -164t-113.5 -102t-150.5 -31
q-100 0 -169.5 43.5t-107.5 131.5t-38 218q0 136 44 257.5t126 173.5t183 52zM1381 721q-52 0 -89.5 -44.5t-56.5 -125t-19 -178.5q0 -91 17 -143t48.5 -79.5t72.5 -27.5q24 0 45 9t43 35t40.5 75t26.5 107.5t8 120.5q0 125 -37 188t-99 63z" />
    <glyph glyph-name="ampersand" unicode="&#x26;" horiz-adv-x="1489" 
d="M1087 662q79 -2 126 -2t121 2q1 -225 -113 -419q63 -70 122.5 -130t107.5 -113q-106 2 -165 2q-78 0 -158 -2l-114 119q-38 -29 -65.5 -47t-67 -37t-83.5 -32t-93 -20t-106 -7q-147 0 -265.5 48.5t-180 145t-61.5 209.5q0 80 30 151t101 137.5t220 146.5q-52 80 -74 140
t-22 115q0 66 30.5 128.5t89.5 108.5t131.5 64.5t154.5 18.5q129 0 290 -41l5 -223q-68 33 -114.5 44.5t-91.5 11.5q-58 0 -106.5 -20.5t-74 -60t-25.5 -83.5q0 -24 6.5 -50.5t24.5 -62.5q25 -50 73 -116q58 -79 121 -149q15 -18 108 -113q42 -43 80 -85q14 34 20 57.5
t11 66.5t7 97zM878 282l-131 141q-56 60 -94 103.5t-89 105.5q-69 -43 -102.5 -69.5t-56 -58t-31 -61t-8.5 -59.5q0 -59 33.5 -107.5t94 -74t136.5 -25.5q42 0 81 8.5t69.5 23t51 31t46.5 42.5z" />
    <glyph glyph-name="quotesingle" unicode="'" horiz-adv-x="415" 
d="M141 997q5 104 5 326l1 42q61 -2 99 -2q31 0 95 2q-20 -179 -33 -368q-50 3 -76 3q-36 0 -91 -3z" />
    <glyph glyph-name="parenleft" unicode="(" horiz-adv-x="707" 
d="M257 -459q-40 154 -72 345.5t-32 399.5q0 175 22.5 350.5t78 390t99.5 338.5q64 -2 112 -2q51 0 114 2l-45 -166q-21 -77 -41.5 -168.5t-36.5 -183.5t-27.5 -193t-17.5 -200.5t-6 -198.5q0 -108 4.5 -200t14.5 -180.5t22 -154t38 -179.5q-66 2 -110 2q-49 0 -117 -2z" />
    <glyph glyph-name="parenright" unicode=")" horiz-adv-x="698" 
d="M174 1365q65 -2 113 -2q51 0 112 2q51 -235 74 -422.5t23 -367.5q0 -173 -22.5 -347t-72 -366t-98.5 -321q-64 2 -116 2q-53 0 -110 -2q45 143 64 215q29 109 48 224q28 164 42.5 331.5t14.5 319.5q0 104 -6.5 210t-17 197t-18.5 139z" />
    <glyph glyph-name="asterisk" unicode="*" horiz-adv-x="1027" 
d="M219 816l183 194l-241 75q40 74 71 150l234 -105l-4 259q55 -2 85 -2q35 0 83 2l-32 -259l245 100q21 -68 51 -150l-250 -73l162 -193l-63 -47q-26 -20 -72 -58l-152 221l-179 -221q-55 53 -121 107z" />
    <glyph glyph-name="plus" unicode="+" 
d="M103 612q8 75 10 182q267 -4 430 -4q3 70 15 438q34 -2 96 -2q63 0 96 2l-23 -438l176 1l259 3q-7 -71 -11 -182q-281 4 -433 4q-4 -79 -15 -438q-37 2 -96 2t-96 -2l23 438h-127z" />
    <glyph glyph-name="comma" unicode="," horiz-adv-x="530" 
d="M-7 -237q68 187 150 434q109 -2 154 -2q36 0 148 2q-40 -68 -84.5 -139.5t-91 -152.5t-83.5 -141q-63 2 -95 2q-39 0 -98 -3z" />
    <glyph glyph-name="hyphen" unicode="-" horiz-adv-x="528" 
d="M-3 428q9 97 11 202q145 -4 258 -4q114 0 259 4q-8 -85 -11 -202q-145 5 -260 5q-112 0 -257 -5z" />
    <glyph glyph-name="period" unicode="." horiz-adv-x="530" 
d="M106 0q4 72 11 269l152 -2q20 0 131 2q-5 -73 -8 -147l-6 -122l-131 2q-8 0 -149 -2z" />
    <glyph glyph-name="slash" unicode="/" horiz-adv-x="878" 
d="M-228 -459l351 678l452 887l129 259q65 -2 90 -2q30 0 89 2l-822 -1622l-97 -202q-59 2 -91 2q-28 0 -101 -2z" />
    <glyph glyph-name="zero" unicode="0" 
d="M664 1389q158 0 270.5 -68t174.5 -217t62 -348q0 -157 -38 -313t-105 -256t-183.5 -155.5t-249.5 -55.5q-128 0 -228.5 49.5t-163.5 139t-88 201t-25 229.5q0 163 38 321t109.5 263.5t185.5 157.5t241 52zM656 1181q-38 0 -74.5 -15t-71 -49.5t-57 -80.5t-41 -111.5
t-29 -156t-10.5 -184.5q0 -136 27.5 -221.5t82 -132.5t125.5 -47q39 0 76 15.5t75.5 58.5t69 125.5t44.5 181t14 199.5q0 139 -26.5 229t-79.5 139.5t-125 49.5z" />
    <glyph glyph-name="one" unicode="1" 
d="M507 0q14 154 23 350l19 400q10 204 13 351q-45 -28 -68.5 -43.5t-116.5 -79.5q5 63 8.5 141t3.5 120q35 20 91 54t70 43.5t38 28.5q59 -2 143 -2q82 0 155 2l-11 -136q-4 -47 -9 -135l-40 -795l-3 -119q-1 -37 -1 -75l1 -105q-68 2 -148 2q-93 0 -168 -2z" />
    <glyph glyph-name="two" unicode="2" 
d="M97 0q3 38 3 61l6 146q125 112 228.5 216.5t211.5 224t163 192.5q45 59 60 88.5t20 50t5 41.5q0 55 -33 89.5t-90.5 54t-133.5 19.5q-70 0 -152 -12.5t-211 -45.5l19 101q6 36 18 121q231 42 444 42q97 0 187 -18.5t160.5 -63t103 -103t32.5 -122.5q0 -38 -7.5 -75.5
t-21.5 -68.5q-27 -62 -68.5 -125t-130 -168t-193 -215t-232.5 -231h91l223 1q111 0 163 2.5t125 9.5q-2 -31 -6.5 -80.5t-10.5 -131.5q-227 2 -472 2q-300 0 -501 -2z" />
    <glyph glyph-name="three" unicode="3" 
d="M125 28q-8 136 -20 235q208 -75 385 -75q88 0 159.5 28t113 80.5t41.5 123.5q0 60 -34.5 105.5t-108 68t-189.5 22.5q-74 0 -153 -9q10 115 16 218q59 -10 116 -10q88 0 167.5 17t123.5 69.5t44 114.5q0 25 -7.5 48.5t-21 43t-34 34.5t-45.5 24.5t-68 15.5t-92 6
q-66 0 -136.5 -8.5t-179.5 -32.5l19 83l24 131q115 16 194 22t171 6q105 0 203.5 -17t168.5 -59t103.5 -109t33.5 -147q0 -52 -15 -102.5t-44.5 -93.5t-66 -71t-71.5 -45t-102 -40q72 -11 110 -24.5t75 -41t63 -64t39 -84t13 -99.5q0 -94 -44.5 -177.5t-129 -138.5
t-192.5 -77.5t-225 -22.5q-86 0 -178 11t-226 41z" />
    <glyph glyph-name="four" unicode="4" 
d="M633 0q19 201 26 412h-202l-368 -6q2 13 6.5 111.5t4.5 134.5l75 95q28 37 87 117l216 296q30 43 60.5 88t77.5 117q121 -2 199 -2q76 0 175 2q-30 -427 -37 -744q48 -1 114 -1q78 0 105 3q-3 -78 -3 -180v-34q-61 4 -224 4q-3 -46 -4.5 -84t-3 -134t-1.5 -138v-57
q-77 2 -147 2q-64 0 -156 -2zM697 611q3 58 3 67l19 485q-152 -221 -200 -285l-194 -267h372z" />
    <glyph glyph-name="five" unicode="5" 
d="M160 19l-5 79q-2 32 -5 64t-10 85q187 -54 320 -54q94 0 171.5 32t121 93.5t43.5 132.5q0 62 -33.5 108t-103 70.5t-182.5 24.5q-65 0 -128 -5.5t-169 -21.5q42 453 61 738q268 -2 440 -2q228 0 432 2q-7 -80 -8 -120l-3 -96q-89 7 -277 8l-176 2q-44 0 -122 -1l-32 -346
q85 10 144 10q147 0 265.5 -42.5t174.5 -131.5t56 -196q0 -106 -51.5 -202.5t-142.5 -157t-210 -88.5t-244 -28q-44 0 -108.5 6t-107.5 13t-111 24z" />
    <glyph glyph-name="six" unicode="6" 
d="M637 829q69 13 122 13q104 0 197 -38.5t146 -133t53 -208.5q0 -95 -35.5 -186.5t-110.5 -164t-180 -104t-221 -31.5q-102 0 -196 25.5t-169.5 83.5t-112 145.5t-36.5 180.5q0 71 16 158t73 213.5t151.5 276.5t214.5 306h364q-145 -171 -194 -235q-69 -90 -129.5 -185.5
t-102 -179.5t-68.5 -162q-16 -45 -24 -91t-8 -89q0 -110 63.5 -175.5t163.5 -65.5q74 0 130 34t82.5 92t26.5 124q0 65 -25.5 112.5t-86 71t-126.5 23.5q-41 0 -97 -12q98 161 119 202z" />
    <glyph glyph-name="seven" unicode="7" 
d="M195 0l232 451l294 583l59 123q-90 1 -147 1q-251 0 -482 -12q8 103 11 219h962q-6 -110 -9 -225q0 -1 -11 -21l-10 -19q-25 -48 -135 -273l-219 -445q-91 -188 -176 -382q-118 1 -175 1z" />
    <glyph glyph-name="eight" unicode="8" 
d="M379 698q-62 27 -94.5 49.5t-63 61.5t-45.5 86.5t-15 103.5q0 94 41.5 172t120 128.5t167.5 70t187 19.5q95 0 184 -23.5t152 -74.5t90.5 -115.5t27.5 -143.5q0 -40 -7.5 -79.5t-26.5 -77t-47 -68t-58.5 -52.5t-99.5 -53q67 -18 100.5 -33.5t65 -41t53 -59t33 -76
t11.5 -89.5q0 -96 -43.5 -182.5t-118.5 -139.5t-178 -79t-210 -26q-104 0 -199 20.5t-170 70.5t-111.5 120t-36.5 160q0 50 12.5 98.5t39.5 92t62.5 73.5t71.5 47.5t105 39.5zM657 1194q-104 0 -167.5 -62t-63.5 -156q0 -58 28 -101.5t76 -64.5t105 -21q66 0 120 27.5
t84 77.5t30 113q0 84 -57.5 135.5t-154.5 51.5zM632 601q-127 0 -193 -62t-66 -156q0 -58 29 -107.5t89 -76t127 -26.5q69 0 129 28t93 83t33 123q0 91 -61.5 142.5t-179.5 51.5z" />
    <glyph glyph-name="nine" unicode="9" 
d="M344 0q131 166 221 293q98 139 169 259q52 89 82.5 164.5t41 126t10.5 95.5q0 74 -27 130.5t-78.5 85.5t-118.5 29q-69 0 -128 -31.5t-91 -87t-32 -122.5q0 -64 23.5 -111.5t79 -74t130.5 -26.5q30 0 57.5 5t66.5 15q-70 -104 -133 -208q-57 -10 -102 -10
q-120 0 -221.5 47.5t-148.5 135.5t-47 195q0 134 67 244t197 172.5t299 62.5q113 0 214 -30.5t165.5 -92t95 -146t30.5 -163.5q0 -59 -13.5 -132t-44 -154t-82.5 -184t-125.5 -215t-184.5 -272q-89 1 -175 1z" />
    <glyph glyph-name="colon" unicode=":" horiz-adv-x="530" 
d="M139 748q4 71 11 269l152 -2q20 0 132 2q-5 -58 -9 -148l-6 -121q-95 2 -131 2q-34 0 -149 -2zM106 0q4 72 11 269l152 -2q20 0 131 2q-5 -73 -8 -147l-6 -122l-131 2q-8 0 -149 -2z" />
    <glyph glyph-name="semicolon" unicode=";" horiz-adv-x="530" 
d="M139 748q3 49 11 269l151 -2q21 0 132 2q-5 -63 -14 -269q-96 2 -131 2q-34 0 -149 -2zM-7 -237q68 187 150 434q109 -2 154 -2q36 0 148 2q-40 -68 -84.5 -139.5t-91 -152.5t-83.5 -141q-63 2 -95 2q-39 0 -98 -3z" />
    <glyph glyph-name="less" unicode="&#x3c;" horiz-adv-x="1024" 
d="M955 1247v-255l-614 -303l613 -304l1 -253l-887 450v216z" />
    <glyph glyph-name="equal" unicode="=" 
d="M129 956q294 -4 523 -4q230 0 525 4q-7 -59 -11 -182q-294 4 -523 4q-230 0 -525 -4q8 84 11 182zM108 632q286 -4 524 -4q241 0 525 4q-7 -70 -11 -181q-283 4 -524 4t-524 -4q8 75 10 181z" />
    <glyph glyph-name="greater" unicode="&#x3e;" horiz-adv-x="1024" 
d="M69 132v255l614 303l-613 304l-1 253l887 -450v-216z" />
    <glyph glyph-name="question" unicode="?" horiz-adv-x="1012" 
d="M309 349l6 99q3 50 8 87t11.5 58t18.5 42t41 56.5t88 100.5l84 92q27 29 45.5 58t24.5 48.5t6 40.5q0 48 -32 83.5t-92 51t-131 15.5q-67 0 -141.5 -11.5t-187.5 -44.5q31 151 42 233q204 31 385 31q95 0 184 -17t157 -57.5t104.5 -102.5t36.5 -129q0 -37 -8.5 -73
t-27 -73t-47 -77.5t-62.5 -77.5t-92 -96t-69 -72q-25 -28 -38 -50.5t-21 -46.5t-14 -56.5t-14 -111.5q-71 2 -129 2q-63 0 -136 -2zM270 0q10 121 19 253q101 -2 153 -2q56 0 150 2q-7 -89 -9 -147.5t-6 -105.5q-107 2 -149 2t-158 -2z" />
    <glyph glyph-name="at" unicode="@" horiz-adv-x="1725" 
d="M1252 994l-16 -77l-13 -83q-13 -79 -25.5 -143t-16.5 -92.5t-5 -40.5t-1 -20q0 -29 16 -44t41 -15q53 0 117 52.5t103.5 142t39.5 189.5q0 88 -34 166.5t-111 132t-178 76t-207 22.5q-142 0 -271.5 -39.5t-230.5 -131.5t-157 -224t-56 -274q0 -109 35.5 -203.5
t109 -159.5t180 -94t225.5 -29q121 0 216 21t193 82q13 -57 31 -116q-96 -60 -206.5 -88t-244.5 -28q-148 0 -283 40t-224.5 119t-133 193t-43.5 246q0 172 68 333.5t185 270.5t278 160t338 51q137 0 263 -32.5t216 -102t138 -173t48 -219.5q0 -138 -66.5 -259t-183 -195.5
t-241.5 -74.5q-42 0 -80.5 12t-63 38t-28.5 61q-40 -39 -54 -51t-44.5 -27t-68.5 -24t-74 -9q-70 0 -125.5 33t-83.5 90t-28 133q0 108 59 219t165.5 163.5t271.5 52.5q51 0 107.5 -6t153.5 -24zM1032 868q-46 10 -84 10q-77 0 -136.5 -33.5t-93 -101t-33.5 -134.5
q0 -35 12.5 -66t41.5 -50t66 -19q62 0 114 46t73 126q16 57 40 222z" />
    <glyph glyph-name="A" unicode="A" horiz-adv-x="1542" 
d="M-63 0q104 184 244 455l263 505q123 234 204 405q130 -2 184 -2q95 0 186 2l143 -409l311 -846l43 -110l-150 2q-52 0 -175 -2q-24 89 -75.5 240t-87.5 245h-526q-117 -238 -228 -485l-163 2q-46 0 -173 -2zM590 693h383l-157 462l-81 -168z" />
    <glyph glyph-name="B" unicode="B" horiz-adv-x="1339" 
d="M120 0q19 212 26 347t18 461t11 448q0 37 -1 109q126 -2 209 -2q84 0 207 3t203 3q112 0 168.5 -9.5t100.5 -28.5t74 -46.5t51.5 -65t32 -81t10.5 -88.5q0 -56 -13.5 -106.5t-39 -91t-59.5 -69t-65 -44.5t-83 -34q47 -10 75 -19.5t60 -29t60.5 -50t45.5 -64.5t26.5 -75.5
t9.5 -86.5q0 -96 -41.5 -176t-114.5 -126.5t-163.5 -62t-384.5 -15.5l-242 1zM447 799h161q103 0 138.5 5t74.5 19.5t66 45t39.5 67t12.5 74.5q0 37 -13.5 70t-41.5 54.5t-67.5 31t-115.5 9.5h-240zM423 196h227q69 0 107.5 5.5t73.5 19.5t55 30t35.5 41t24.5 56.5t9 65.5
q0 46 -16 81t-47.5 60.5t-73.5 37t-128 11.5h-252z" />
    <glyph glyph-name="C" unicode="C" horiz-adv-x="1329" 
d="M1235 250q-22 -117 -38 -238q-114 -20 -209 -28t-163 -8q-150 0 -286.5 42t-246 132.5t-158.5 219.5t-49 282q0 166 59 307t169.5 238t261.5 144.5t315 47.5q162 0 354 -37q3 -89 6 -126l7 -107q-113 30 -188 41t-143 11q-107 0 -205.5 -32.5t-174 -103.5t-116 -171.5
t-40.5 -209.5q0 -130 50 -233t160.5 -167t273.5 -64q151 0 361 60z" />
    <glyph glyph-name="D" unicode="D" horiz-adv-x="1546" 
d="M119 0l27 348l20 435l13 433q1 28 1 149q111 -2 209 -2q73 0 192.5 3t206.5 3q118 0 218.5 -14t175.5 -52.5t130 -96.5t90 -128.5t53.5 -157t18.5 -176.5q0 -172 -59.5 -327.5t-177.5 -257t-261.5 -130.5t-325.5 -29l-340 2q-32 0 -191 -2zM426 213q82 -4 162 -4
q91 0 168.5 9t133.5 28.5t112.5 68.5t92.5 113.5t55 143.5t19 161q0 150 -51 246.5t-134.5 139t-257.5 42.5q-113 0 -259 -4z" />
    <glyph glyph-name="E" unicode="E" horiz-adv-x="1251" 
d="M117 0l29 383l21 443l13 403v136q247 -2 515 -2l192 1l289 1l-12 -216l-95 5q-39 2 -108 3t-141 1q-156 0 -201.5 -0.5t-137.5 -3.5l-16 -355q137 -3 276 -3q96 0 324 6q-8 -91 -14 -218q-267 3 -306 3q-118 0 -294 -6l-16 -374l110 -1q48 0 220 2l217 4l145 7
q-10 -116 -14 -219q-260 2 -469 2l-329 -1z" />
    <glyph glyph-name="F" unicode="F" horiz-adv-x="1171" 
d="M120 0q18 196 24 315q11 199 23 570q9 274 9 387v93q287 -2 502 -2l280 1l167 1q-11 -149 -12 -216l-143 5l-58 1h-78h-152l-207 -1l-12 -359l170 -3q194 0 249 1l136 2q-7 -116 -9 -212q-174 4 -277 4q-130 0 -281 -4l-11 -442l-1 -90v-51l-153 2q-12 0 -166 -2z" />
    <glyph glyph-name="G" unicode="G" horiz-adv-x="1561" 
d="M905 780q138 -2 264 -2q165 0 275 2q-26 -335 -37 -744q-166 -33 -300 -46.5t-228 -13.5q-176 0 -326.5 37t-254.5 120t-158.5 218.5t-54.5 286.5q0 129 40.5 249t120 220t192 166.5t239 91t267.5 24.5q194 0 446 -52q1 -114 11 -239q-236 80 -427 80q-123 0 -232.5 -35
t-189 -108.5t-121 -182t-41.5 -224.5q0 -129 47.5 -230.5t159.5 -157.5t257 -56q53 0 125 9.5t150 32.5l16 351l-79 1q-67 0 -170 -3q9 134 9 205z" />
    <glyph glyph-name="H" unicode="H" horiz-adv-x="1590" 
d="M120 0l23 359q19 294 27 545.5t8 350.5l-1 110q118 -2 167 -2q37 0 151 2l-26 -451l-3 -104l682 1l12 270q4 139 4 183v101l167 -2q22 0 150 2l-33 -545l-15 -404l-4 -237q-2 -146 -2 -179l-156 2q-29 0 -166 -2q26 283 33 595h-683l-14 -368l-4 -227l-164 2
q-27 0 -153 -2z" />
    <glyph glyph-name="I" unicode="I" horiz-adv-x="602" 
d="M120 0q24 344 39 705.5t15 552.5l-1 107l167 -2q14 0 153 2q-41 -526 -52 -1365l-147 2q-37 0 -174 -2z" />
    <glyph glyph-name="J" unicode="J" horiz-adv-x="954" 
d="M-26 22q-6 115 -18 239q109 -36 171.5 -49t120.5 -13q47 0 91 13q39 11 69 29q22 15 37 33q22 26 36 60q14 36 22 98q11 82 19 272q6 149 11 334q4 155 4 327q119 -2 153 -2q40 0 160 2l-27 -429q-8 -155 -17 -425q-6 -185 -20 -253q-10 -52 -31 -92q-19 -36 -47 -64
q-33 -32 -80 -57q-61 -33 -130 -49q-77 -19 -167 -19q-153 0 -357 45z" />
    <glyph glyph-name="K" unicode="K" horiz-adv-x="1374" 
d="M118 0q17 196 25 338q12 203 27 574q10 254 10 360v93q124 -2 163 -2q26 0 154 2l-31 -540l-27 -647l-3 -178l-155 2q-28 0 -163 -2zM481 722l227 279l207 263q22 29 74 101l180 -2q11 0 172 2l-460 -541l-78 -97l63 -90q14 -19 198 -260l291 -377l-178 2q-47 0 -195 -2
l-64 100q-18 29 -64 95l-272 388z" />
    <glyph glyph-name="L" unicode="L" horiz-adv-x="1100" 
d="M111 0q30 301 48 670.5t21 694.5q102 -2 170 -2q46 0 147 2q-13 -180 -24 -410l-20 -401q-9 -172 -13 -342l172 -2q242 0 318 1.5t150 5.5q-9 -98 -16 -217q-263 2 -450 2l-315 -1z" />
    <glyph glyph-name="M" unicode="M" horiz-adv-x="1815" 
d="M93 0l26 226l66 794l23 345q143 -2 209 -2q53 0 193 2q16 -81 24 -115t31 -109t59 -182q53 -162 95 -320l76 -286l134 367l195 477q10 24 20.5 55.5t35.5 112.5q119 -2 212 -2q62 0 198 2q-14 -288 -21 -636.5t-7 -520.5q0 -83 2 -208q-99 2 -135 2q-52 0 -138 -2
q6 102 8 168l17 595q3 126 3 248l-1 81l-369 -973l-43 -119q-97 2 -133 2q-45 0 -141 -2l-172 616q-9 33 -42 138l-62 204q-9 29 -13.5 47.5t-19.5 82.5l-13 -128q-5 -61 -15 -204l-39 -620q-2 -46 -3 -136l-129 2q-33 0 -131 -2z" />
    <glyph glyph-name="N" unicode="N" horiz-adv-x="1611" 
d="M118 0q19 179 29 402l23 490q12 266 12 473q116 -2 197 -2q60 0 175 2q113 -197 312 -514t321 -525l37 928q1 33 1 111q94 -2 142 -2q19 0 140 2l-25 -367l-31 -628l-12 -370q-104 2 -177 2q-58 0 -188 -2q-50 89 -76 132q-41 66 -175 272q-88 136 -220 348
q-97 156 -166 272q-8 -162 -25 -601q-7 -179 -11 -423q-94 2 -136 2q-33 0 -147 -2z" />
    <glyph glyph-name="O" unicode="O" horiz-adv-x="1709" 
d="M894 1389q149 0 286 -41t243 -133.5t160 -215.5t54 -287q0 -154 -51 -294.5t-158 -242t-260.5 -150.5t-322.5 -49q-160 0 -307.5 45t-254 141t-152.5 220.5t-46 269.5q0 159 57.5 304t169 240t261 144t321.5 49zM878 1176q-151 0 -263 -69.5t-168.5 -190t-56.5 -260.5
q0 -130 54.5 -239.5t167.5 -167t244 -57.5q99 0 189 34t155.5 103.5t98.5 167.5t33 204q0 99 -29.5 190t-91.5 156.5t-149.5 97t-183.5 31.5z" />
    <glyph glyph-name="P" unicode="P" horiz-adv-x="1206" 
d="M120 0l18 237l25 525l12 381q1 52 1 105q0 39 -1 117q128 -2 208 -2q64 0 178 3t181 3q138 0 203 -20q69 -22 121 -69t79 -113q30 -74 30 -159q0 -129 -64.5 -234.5t-178.5 -157.5t-253 -52q-68 0 -145 14q-22 104 -50 195q62 -13 123 -13q83 0 144 25t97 81.5t36 127.5
q0 42 -15 77t-43.5 56t-63 28.5t-98.5 7.5q-56 0 -113 -2t-101 -2q-12 -196 -18 -375l-12 -382q-6 -203 -6 -298q0 -36 1 -104l-145 2q-28 0 -150 -2z" />
    <glyph glyph-name="Q" unicode="Q" horiz-adv-x="1730" 
d="M1657 261q-13 -60 -24 -120l-19 -109q-175 -26 -376.5 -41t-343.5 -15q-166 0 -311.5 36.5t-261.5 127.5t-176 219t-60 296q0 167 58.5 305t171.5 237t262.5 145.5t316.5 46.5q151 0 291 -43.5t241 -135t155 -219.5t54 -266q0 -70 -14 -137t-40 -128t-59 -106t-67.5 -78
t-83.5 -73q96 11 137 19.5t149 38.5zM880 1175q-145 0 -262.5 -67.5t-177.5 -189t-60 -255.5q0 -150 61 -255t168.5 -159.5t235.5 -54.5q138 0 253.5 63t174 181.5t58.5 264.5q0 106 -31 193.5t-89.5 150t-146.5 95.5t-184 33z" />
    <glyph glyph-name="R" unicode="R" horiz-adv-x="1292" 
d="M116 0q30 298 45 685t15 680q120 -2 201 -2q87 0 170.5 3t176.5 3q116 0 207.5 -13t162.5 -60t105.5 -114t34.5 -156q0 -56 -13 -106.5t-38.5 -95t-60.5 -78t-69.5 -53t-78.5 -33.5t-118 -34l68 -132q33 -63 125 -226l101 -177q8 -14 48 -91q-122 2 -161 2q-48 0 -169 -2
l-111 266q-29 61 -70 144l-121 243q-18 34 -50 102q67 -12 122 -12q86 0 157 28t109 86.5t38 127.5q0 42 -16.5 78t-55.5 61t-93 32t-108 7q-30 0 -82 -1t-128 -1l-18 -411l-19 -750l-155 2q-37 0 -151 -2z" />
    <glyph glyph-name="S" unicode="S" horiz-adv-x="1050" 
d="M83 29q-8 152 -21 248q196 -89 356 -89q64 0 119.5 19.5t82 55t26.5 79.5q0 34 -12 61q-18 37 -60 77q-58 55 -207 181q-71 61 -98 87q-60 57 -92 102.5t-46 90.5t-14 96q0 94 52.5 176.5t157 129t263.5 46.5q143 0 322 -35q5 -104 20 -238q-156 60 -288 60
q-98 0 -160.5 -44.5t-62.5 -103.5q0 -16 4 -33.5t12 -34t28.5 -43t60 -62t67.5 -57.5l139 -112q47 -39 84 -76t63.5 -71t41.5 -65t22.5 -63.5t7.5 -68.5q0 -84 -39 -158.5t-112 -122.5t-160 -66.5t-184 -18.5q-64 0 -149 11t-224 42z" />
    <glyph glyph-name="T" unicode="T" horiz-adv-x="1180" 
d="M409 0l22 292l22 435l14 428h-70l-65 -1l-62 -1l-231 -7q8 144 9 219q288 -2 603 -2l359 1l192 1q-10 -141 -10 -217q-181 9 -347 9h-77l-12 -183l-29 -704l-2 -118q-1 -73 -1 -152l-152 2q-25 0 -163 -2z" />
    <glyph glyph-name="U" unicode="U" horiz-adv-x="1538" 
d="M173 1365q116 -2 157 -2q51 0 152 2l-47 -807q-1 -14 -1 -30q0 -135 38.5 -203t113 -99t170.5 -31q61 0 116 14q45 12 82 33q30 18 53 42q27 29 45 67q19 37 28 84q13 71 24 247l21 348q7 152 11 335q113 -2 168 -2l146 2l-31 -482l-20 -383q-9 -134 -28 -200
q-16 -55 -45 -102q-28 -42 -67 -75q-50 -43 -117 -74q-75 -35 -159 -51q-116 -22 -239 -22q-126 0 -236 23q-94 20 -172.5 62t-124.5 94q-37 42 -59 105q-25 70 -25 156q0 30 2 77.5t7 122.5l9 141q5 66 11 194l10 217q4 89 7 197z" />
    <glyph glyph-name="V" unicode="V" horiz-adv-x="1456" 
d="M493 0l-38 126q-8 25 -66 191l-194 552l-178 496q103 -2 171 -2q42 0 147 2l31 -111q10 -34 29 -92l242 -733q22 -71 57 -187l54 122q20 45 83 176l315 658q14 29 28 61.5t44 105.5q109 -2 166 -2q34 0 157 2l-86 -160l-547 -1080l-58 -125q-130 2 -174 2q-39 0 -183 -2z
" />
    <glyph glyph-name="W" unicode="W" horiz-adv-x="2156" 
d="M516 0q-245 688 -509 1365q96 -2 156 -2q66 0 156 2l280 -828l117 -326q38 74 114.5 237.5t109.5 241.5q-46 140 -116.5 339t-123.5 336q85 -2 149 -2q71 0 149 2q47 -181 104 -358q84 181 154 358q87 -2 140 -2q61 0 140 2q-64 -128 -158.5 -327t-152.5 -332
q22 -72 82 -244t88 -243l269 572l195 428l64 146q96 -2 154 -2q64 0 155 2l-188 -373l-393 -806l-88 -186q-107 2 -183 2q-80 0 -184 -2q-59 202 -130 397q-95 -195 -180 -397q-107 2 -185 2q-82 0 -185 -2z" />
    <glyph glyph-name="X" unicode="X" horiz-adv-x="1312" 
d="M-68 0l74 93q35 43 119 153l270 355l85 118l-122 197l-295 449q98 -2 188 -2q72 0 165 2q64 -118 145.5 -245t125.5 -208q55 84 156 221.5t158 231.5q82 -2 166 -2q54 0 166 2q-79 -107 -223.5 -294.5t-274.5 -368.5q136 -225 452 -702q-117 2 -170 2q-86 0 -185 -2
q-56 106 -151 258t-150 249q-56 -85 -166.5 -234t-193.5 -273q-109 2 -166 2q-63 0 -173 -2z" />
    <glyph glyph-name="Y" unicode="Y" horiz-adv-x="1201" 
d="M395 0q12 111 24.5 290t14.5 285l-448 790q113 -2 176 -2q60 0 160 2q45 -104 131 -263.5t148 -292.5l297 480q15 25 44 76q97 -2 172 -2q39 0 161 2l-546 -811l-12 -253q-6 -112 -9 -301q-107 2 -156 2q-50 0 -157 -2z" />
    <glyph glyph-name="Z" unicode="Z" horiz-adv-x="1268" 
d="M45 0q9 136 10 226l47 52q3 3 85 102l490 587l155 192l-66 1h-25l-87 1h-152q-188 0 -367 -11q6 78 6 168q0 17 -1 47q261 -2 554 -2l334 1l182 1q-8 -109 -10 -223l-68 -75q-20 -22 -39 -46l-357 -437l-313 -374l80 -1q338 0 435 2t212 9q-8 -140 -10 -220
q-287 2 -526 2l-369 -1z" />
    <glyph glyph-name="bracketleft" unicode="[" horiz-adv-x="707" 
d="M209 1365q127 -2 224 -2q98 0 224 2q-3 -22 -6 -92l-3 -70q-52 2 -103 2q-52 0 -103 -2q-44 -753 -64 -1501q52 -2 103 -2t102 2q-6 -56 -8 -161q-92 2 -223 2t-223 -2l34 578l29 675z" />
    <glyph glyph-name="backslash" unicode="\" horiz-adv-x="865" 
d="M1021 -459q-72 2 -99 2q-33 0 -89 -2l-80 193l-448 1018l-273 613q58 -2 86 -2q26 0 88 2l98 -228l595 -1332z" />
    <glyph glyph-name="bracketright" unicode="]" horiz-adv-x="707" 
d="M461 -459q-119 2 -225 2t-224 -2q3 23 7 93l2 69q48 -2 103 -2q52 0 103 2q45 753 64 1501q-52 2 -102 2q-52 0 -103 -2q6 55 9 161q91 -2 222 -2t223 2l-34 -578l-29 -675z" />
    <glyph glyph-name="asciicircum" unicode="^" horiz-adv-x="1024" 
d="M273 731h-233l326 641h291l327 -641h-234l-239 465z" />
    <glyph glyph-name="underscore" unicode="_" horiz-adv-x="1024" 
d="M0 -125h1024v-160h-1024v160z" />
    <glyph glyph-name="grave" unicode="`" horiz-adv-x="1024" 
d="M666 1154q-58 2 -103 2q-59 0 -109 -2l-75 109q-35 51 -97 134q96 -2 151 -2q69 0 148 2l26 -75q12 -36 28 -80z" />
    <glyph glyph-name="a" unicode="a" horiz-adv-x="1161" 
d="M177 794q14 72 17.5 101t12.5 88q136 32 240 45t201 13q110 0 202 -25.5t144 -81.5t52 -161q0 -57 -16 -290.5t-19 -482.5q-76 2 -140 2q-61 0 -143 -2q13 121 21 280l13 249q-38 -25 -58 -35t-45 -18.5t-88 -26t-101 -30.5t-68.5 -29.5t-51.5 -37t-30.5 -43t-9.5 -48.5
q0 -42 24.5 -72.5t61.5 -42.5t87 -12q32 0 67.5 5t95.5 25q-21 -57 -49 -170q-71 -12 -113 -15t-78 -3q-126 0 -207 34t-119.5 108t-38.5 149q0 43 15 85t44 77t75 67.5t133 63t230 61.5q38 8 79 19.5t65.5 22.5t42.5 28.5t26.5 36.5t8.5 39q0 39 -25.5 66t-66 37.5
t-89.5 10.5q-182 0 -402 -87z" />
    <glyph glyph-name="b" unicode="b" horiz-adv-x="1274" 
d="M101 0q18 190 39.5 660.5t22.5 704.5q89 -2 154 -2t139 2q-17 -141 -27 -356q98 19 156 25.5t115 6.5q157 0 264.5 -49.5t172.5 -164t65 -277.5q0 -114 -32.5 -221.5t-97 -191t-156.5 -122.5t-200 -39q-52 0 -96.5 9.5t-82 27.5t-67 42t-49 48t-45.5 67l-4 -170
q-82 2 -129 2q-36 0 -142 -2zM410 805l-8 -171q-3 -55 -3 -107q0 -124 25.5 -195.5t86.5 -110.5t137 -39q83 0 144 44.5t93.5 130.5t32.5 181q0 137 -73 220t-215 83q-46 0 -96 -7.5t-124 -28.5z" />
    <glyph glyph-name="c" unicode="c" horiz-adv-x="1001" 
d="M897 231q-5 -41 -15 -93t-21 -129q-143 -33 -282 -33q-81 0 -156 15t-139.5 53.5t-113.5 101.5t-73.5 152.5t-24.5 184.5q0 126 40.5 242t118.5 189.5t173.5 100t212.5 26.5q65 0 134 -7.5t163 -30.5l15 -219q-149 51 -260 51q-68 0 -128.5 -23t-104 -72.5t-62 -114.5
t-18.5 -133q0 -95 29.5 -164.5t101.5 -107.5t164 -38q45 0 109.5 11.5t136.5 37.5z" />
    <glyph glyph-name="d" unicode="d" horiz-adv-x="1281" 
d="M1134 0q-83 2 -129 2q-50 0 -138 -2l9 174q-44 -57 -75.5 -88t-78 -57.5t-100.5 -39.5t-112 -13q-96 0 -180 35t-143 98.5t-87 151t-28 182.5q0 131 50 255.5t137 201.5t197 109t236 32q91 0 206 -17q7 130 7 273v68q94 -2 144 -2q65 0 146 2q-22 -254 -41.5 -691.5
t-19.5 -673.5zM887 834q-75 20 -144 20q-79 0 -151 -22t-127.5 -75t-85.5 -136t-30 -160t27.5 -141t85.5 -101t131 -37q55 0 100 19.5t82 60t62.5 104.5t36.5 170q7 78 13 298z" />
    <glyph glyph-name="e" unicode="e" horiz-adv-x="1148" 
d="M1008 227q-13 -59 -37 -212q-108 -23 -182 -31t-149 -8q-131 0 -234.5 26t-181.5 95.5t-115 170.5t-37 212q0 123 43 238.5t120.5 189t176.5 104t207 30.5q102 0 194 -25.5t154.5 -83.5t96 -139.5t33.5 -181.5q0 -47 -10 -97l-733 -1q-2 -37 -2 -59q0 -67 23 -123t67 -95
t105 -57.5t120 -18.5q69 0 149.5 15t191.5 51zM362 631l468 -1q0 48 -3 71t-13.5 52.5t-28.5 52t-42 37.5t-55.5 23t-67.5 8q-42 0 -81.5 -13t-72.5 -38t-53.5 -56t-30.5 -59.5t-20 -76.5z" />
    <glyph glyph-name="f" unicode="f" horiz-adv-x="704" 
d="M137 0l12 165l30 650h-124q3 30 6.5 97.5t4.5 98.5h136v40q0 107 9 163.5t33.5 92.5t69 62.5t97.5 36t109 9.5q114 0 241 -32q3 -112 11 -192q-96 34 -175 34q-31 0 -57 -7.5t-42.5 -20.5t-27.5 -34t-15 -49.5t-4 -65.5v-37h255q-6 -69 -12 -196h-240q-19 -398 -29 -815
q-91 2 -145 2q-55 0 -143 -2z" />
    <glyph glyph-name="g" unicode="g" horiz-adv-x="1291" 
d="M172 -212q225 -74 390 -74q63 0 119 15.5t94 45t59 80t28 117t11 201.5q-39 -53 -70 -82.5t-74.5 -53t-101.5 -38t-122 -14.5q-88 0 -167 27.5t-140.5 86.5t-93.5 148.5t-32 186.5q0 139 52.5 263t154 204t217 110t256.5 30q78 0 177 -9.5t262 -38.5l-23 -317l-21 -397
l-8 -359q-3 -61 -15 -117.5t-38 -102t-66 -80.5t-90.5 -56.5t-125 -35.5t-159.5 -14q-91 0 -207 12t-253 45zM902 817q-87 18 -161 18q-130 0 -215 -47.5t-131 -138.5t-46 -193q0 -75 28 -139.5t87.5 -97.5t131.5 -33q51 0 95.5 16t80.5 49t63.5 82t39 110.5t17.5 154
t10 219.5z" />
    <glyph glyph-name="h" unicode="h" horiz-adv-x="1317" 
d="M100 0l24 325l24 465l14 575q88 -2 146 -2q76 0 145 2l-18 -238q-6 -88 -16 -283q32 48 53.5 72t48 44.5t54.5 34.5t65.5 25t83.5 17t94 6q83 0 159.5 -19t132 -64t76 -105.5t20.5 -126.5q0 -43 -5 -134l-24 -437q-3 -68 -3 -157q-81 2 -143 2q-67 0 -153 -2
q14 118 27.5 322t13.5 290q0 79 -25.5 123.5t-75 66t-108.5 21.5q-76 0 -134 -27q-56 -26 -94 -78q-31 -43 -52 -123q-22 -84 -32 -260q-5 -85 -11 -335q-79 2 -136 2q-54 0 -151 -2z" />
    <glyph glyph-name="i" unicode="i" horiz-adv-x="546" 
d="M154 1191q4 103 4 158v32q91 -2 148 -2q78 0 145 2q-3 -25 -4 -57l-5 -133q-76 2 -140 2t-148 -2zM100 0q15 150 21 251q10 160 17.5 369t10.5 397q98 -2 147 -2q45 0 146 2q-14 -174 -22.5 -332t-12.5 -362t-4 -323q-91 2 -146 2q-52 0 -157 -2z" />
    <glyph glyph-name="j" unicode="j" horiz-adv-x="549" 
d="M153 1194q6 104 8 187q65 -2 145 -2q72 0 144 2l-6 -95q0 -5 -4 -92q-75 2 -143 2q-70 0 -144 -2zM435 1017l-20 -446l-14 -447q-7 -279 -14 -335q-9 -72 -27 -112q-15 -35 -38 -62q-24 -27 -60 -49q-39 -24 -85 -36q-65 -16 -152 -16q-54 0 -129 6.5t-169 25.5l-10 129
l-10 86q103 -35 189 -35q45 0 82.5 12.5t63.5 33.5q18 16 31 38q21 37 31.5 91t21.5 267q8 162 13 379q8 283 8 379v91q91 -2 146 -2q58 0 142 2z" />
    <glyph glyph-name="k" unicode="k" horiz-adv-x="1124" 
d="M100 0l20 260l23 499l11 427q2 116 2 179q105 -2 149 -2q52 0 137 2l-21 -325l-24 -518l-10 -387l-1 -135q-89 2 -140 2q-58 0 -146 -2zM419 569l203 248q26 32 62 79t91 121q104 -2 152 -2q66 0 167 2l-329 -378l-59 -72q73 -116 405 -567q-90 2 -154 2t-159 -2
q-58 95 -94.5 152.5t-67.5 100.5l-170 243q-7 10 -47 73z" />
    <glyph glyph-name="l" unicode="l" horiz-adv-x="543" 
d="M101 0q15 169 36.5 607.5t26.5 757.5q104 -2 148 -2q59 0 144 2l-24 -365l-35 -814l-4 -186q-82 2 -139 2q-19 0 -153 -2z" />
    <glyph glyph-name="m" unicode="m" horiz-adv-x="1830" 
d="M102 0q14 170 29.5 508t15.5 509q85 -2 138 -2q61 0 132 2l-8 -161q32 47 58.5 76.5t68.5 54.5t98.5 39.5t116.5 14.5q45 0 87 -8.5t76.5 -24t59 -35.5t41.5 -44.5t37 -72.5q22 35 40.5 58.5t49.5 48.5t69 42t85.5 26.5t98.5 9.5q87 0 164 -28.5t121 -90t44 -152.5
q0 -48 -7 -141t-17 -303.5t-11 -325.5q-73 2 -129 2q-66 0 -155 -2q9 129 17 270l12 229q5 87 5 147q0 71 -22.5 107.5t-57 52t-77.5 15.5q-45 0 -81.5 -17t-68 -55t-48.5 -88.5t-25 -142t-13 -240.5l-7 -278q-83 2 -138 2t-147 -2q7 77 20 315t13 321q0 44 -7 74.5
t-28.5 58t-50.5 40.5t-67 13q-70 0 -123 -46t-77.5 -123t-35 -299.5t-10.5 -353.5q-92 2 -139 2q-53 0 -147 -2z" />
    <glyph glyph-name="n" unicode="n" horiz-adv-x="1311" 
d="M93 0q23 227 38.5 510t17.5 507q92 -2 147 -2q65 0 138 2l-11 -170q31 44 54.5 70t60 51t78 40t93 24t107.5 9q89 0 170.5 -22.5t131.5 -71.5t66 -107t16 -123q0 -27 -3 -86l-21 -437q-4 -91 -5 -194q-79 2 -135 2q-76 0 -153 -2q8 87 20 303.5t12 286.5q0 79 -25 127
t-77.5 73t-113.5 25q-60 0 -112 -23t-90 -67q-40 -45 -62 -111q-23 -70 -34 -231q-10 -143 -16 -383q-77 2 -139 2q-63 0 -153 -2z" />
    <glyph glyph-name="o" unicode="o" horiz-adv-x="1265" 
d="M647 1041q115 0 220.5 -34.5t179 -102t110.5 -165t37 -205.5q0 -114 -39 -220t-113 -183.5t-184.5 -116t-235.5 -38.5q-116 0 -220.5 34.5t-178.5 103.5t-112.5 168t-38.5 207q0 110 35 210t109.5 178t190.5 121t240 43zM647 835q-87 0 -155.5 -42.5t-102 -126.5
t-33.5 -183q0 -87 27.5 -155t90 -110t148.5 -42q88 0 154.5 43.5t100 128t33.5 186.5q0 83 -26 151t-87.5 109t-149.5 41z" />
    <glyph glyph-name="p" unicode="p" horiz-adv-x="1273" 
d="M75 -459q25 279 45 723t20 721q190 34 294 45t207 11q135 0 247.5 -32t180 -107t100 -174t32.5 -207q0 -109 -31 -210t-95 -181.5t-148.5 -117t-184.5 -36.5q-59 0 -116.5 14t-101 37t-71.5 46.5t-71 70.5l-15 -435l-1 -68q-1 -13 -1 -100q-92 1 -142 1zM416 801
q-7 -54 -10 -93l-6 -111q-4 -72 -4 -106q0 -61 12.5 -117t50 -103t89 -71.5t106.5 -24.5q76 0 138.5 43.5t96.5 127.5t34 179q0 105 -37.5 177.5t-100.5 105.5t-143 33q-104 0 -226 -40z" />
    <glyph glyph-name="q" unicode="q" horiz-adv-x="1270" 
d="M821 -459l17 274q5 62 9 162l10 189q-45 -56 -76 -85.5t-75 -53t-97 -37.5t-111 -14q-91 0 -171 34t-138.5 98.5t-87.5 153t-29 183.5q0 136 53.5 261.5t146.5 200t219 104.5t273 30q75 0 167.5 -7.5t243.5 -32.5q-48 -517 -63 -1460q-75 2 -143 2q-55 0 -148 -2z
M874 816q-77 19 -144 19q-118 0 -205 -47.5t-131.5 -141t-44.5 -205.5q0 -73 25.5 -133t80.5 -96t124 -36q58 0 110.5 26.5t91.5 77.5t58 117q13 42 21 125.5t14 293.5z" />
    <glyph glyph-name="r" unicode="r" horiz-adv-x="795" 
d="M99 0l29 475l8 276q2 85 2 171q0 15 -2 95q93 -2 137 -2q51 0 135 2l-5 -141q38 54 65 80.5t60.5 45.5t74.5 29t84 10q40 0 82 -10q0 -93 9 -236q-59 16 -107 16q-58 0 -102.5 -17.5t-80 -53t-58.5 -87.5q-19 -42 -28 -109q-8 -52 -13.5 -178t-5.5 -248q0 -47 3 -118
q-76 2 -139 2q-62 0 -148 -2z" />
    <glyph glyph-name="s" unicode="s" horiz-adv-x="898" 
d="M73 19l-22 220q98 -40 166 -55.5t125 -15.5t96 13.5t58 40t19 55.5q0 13 -2.5 24t-9 23t-15 22.5t-23.5 24t-43 34.5l-54 43q-78 61 -119 96t-69 71.5t-42.5 77t-14.5 82.5q0 73 44.5 139t129.5 96.5t200 30.5q131 0 302 -31l13 -209q-116 47 -223 47q-58 0 -101.5 -11.5
t-62.5 -35t-19 -52.5q0 -17 6 -33.5t21 -34.5t34.5 -34t81.5 -63t108.5 -85t76.5 -76.5t46 -82.5t16 -89q0 -75 -46 -139t-139 -100t-208 -36q-60 0 -146 9.5t-184 33.5z" />
    <glyph glyph-name="t" unicode="t" horiz-adv-x="761" 
d="M724 209q-12 -55 -38 -204q-84 -19 -132 -24t-90 -5q-74 0 -132.5 14t-96.5 49.5t-51.5 83t-13.5 98.5q0 13 1 35t8 142l23 416h-144q5 60 9 193h151q6 58 12 197l118 23q37 7 143 33q-7 -135 -8 -253h254q-7 -135 -7 -193h-255q-21 -407 -21 -471q0 -62 13.5 -96
t43.5 -49t64 -15q25 0 52.5 4t96.5 22z" />
    <glyph glyph-name="u" unicode="u" horiz-adv-x="1280" 
d="M1132 0q-88 2 -135 2q-59 0 -134 -2l2 166q-28 -42 -49 -67.5t-55 -50t-74 -39t-91.5 -24t-109.5 -9.5q-112 0 -195 32.5t-131.5 98.5t-48.5 189v21l16 258l15 340q1 41 1 102q95 -2 149 -2q57 0 138 2l-33 -456q-3 -53 -4.5 -89.5t-1.5 -52.5q0 -72 21.5 -119.5
t75 -72.5t114.5 -25q58 0 110 22q47 20 80.5 56t56.5 97q17 44 26 122q7 55 13 189q8 162 11 329q99 -2 151 -2q59 0 133 2q-12 -143 -25 -357.5t-18 -354t-8 -305.5z" />
    <glyph glyph-name="v" unicode="v" horiz-adv-x="1104" 
d="M373 0q-66 211 -355 1017q88 -2 152 -2q68 0 139 2l234 -763l32 87l225 571q16 40 40 105q82 -2 146 -2q65 0 148 2l-163 -353l-236 -535l-53 -129q-90 2 -151 2q-64 0 -158 -2z" />
    <glyph glyph-name="w" unicode="w" horiz-adv-x="1781" 
d="M366 0l-117 355l-168 488l-63 174q77 -2 141 -2q61 0 128 2l231 -749l265 749q75 -2 143 -2q72 0 137 2l172 -661q3 -15 21 -88l23 66q1 2 19 47l155 393l92 243q76 -2 131 -2q45 0 136 2l-275 -628q-89 -202 -165 -389q-84 2 -132 2q-50 0 -152 -2l-183 728
q-15 -39 -60 -166l-203 -562q-85 2 -129 2q-49 0 -147 -2z" />
    <glyph glyph-name="x" unicode="x" horiz-adv-x="1139" 
d="M-23 0q197 260 400 541l-84 135q-41 66 -109 169l-113 172q110 -2 176 -2q87 0 155 2q45 -89 103 -195l73 -138l220 333q71 -2 152 -2q76 0 157 2l-156 -205q-53 -71 -198 -268l146 -237l197 -307q-86 2 -159 2q-88 0 -171 -2q-61 124 -121.5 228t-89.5 162
q-41 -65 -109.5 -165t-147.5 -225q-84 2 -152 2q-76 0 -169 -2z" />
    <glyph glyph-name="y" unicode="y" horiz-adv-x="1104" 
d="M-25 -460q-18 150 -29 216q96 -45 181 -45q26 0 53 6.5t50 18.5q15 8 30.5 23t42.5 55t47 79q16 33 33 83l-208 609l-152 432q105 -2 151 -2q53 0 139 2q21 -83 39 -144l95 -314q44 -145 63 -218q12 -48 28 -127q30 91 52 148q39 104 109 278l97 239q26 64 53 138
q90 -2 137 -2q43 0 144 2l-385 -863l-167 -381q-35 -74 -67 -115q-26 -35 -57 -60q-30 -24 -64 -40q-43 -20 -93 -32q-57 -12 -115 -12q-33 0 -92 6t-115 20z" />
    <glyph glyph-name="z" unicode="z" horiz-adv-x="988" 
d="M48 0q4 98 6 221q39 39 51 54l489 552h-52q-133 0 -233.5 -3t-196.5 -9q7 96 7 202q174 -2 326 -2q275 0 467 2q-4 -42 -11 -233l-499 -555l-34 -35q100 -4 168 -4q147 0 202.5 1.5t136.5 5.5q-8 -75 -14 -197q-176 2 -398 2q-237 0 -415 -2z" />
    <glyph glyph-name="braceleft" unicode="{" horiz-adv-x="849" 
d="M386 451q24 -12 37.5 -22t26.5 -27.5t22 -39t13 -52t4 -71.5q0 -45 -5 -127l-10 -136q-4 -55 -4 -99q0 -50 6.5 -77t20 -44.5t36 -30t54 -18t71.5 -6.5q-3 -23 -6.5 -72.5t-4.5 -87.5q-99 0 -163 10q-98 15 -150 47q-43 28 -68 80q-28 61 -28 143q0 48 11.5 212.5
t11.5 211.5q0 35 -6.5 61.5t-16.5 42.5t-27.5 29.5t-32 20.5t-34.5 11q6 37 7 84q27 8 49 22q30 19 45 38.5t23.5 50.5t12.5 96q1 29 5 208.5t13 229.5q10 59 40.5 104.5t78.5 71.5q52 29 135 41q66 9 177 9q-3 -22 -6.5 -75t-4.5 -85q-66 -4 -102 -16t-56 -32.5t-30.5 -53
t-13.5 -106t-3 -137.5q0 -43 -1.5 -103t-6.5 -109.5t-13.5 -79.5t-22 -50.5t-31 -35t-53.5 -31.5z" />
    <glyph glyph-name="bar" unicode="|" horiz-adv-x="1024" 
d="M383 1365h259v-1706h-259v1706z" />
    <glyph glyph-name="braceright" unicode="}" horiz-adv-x="849" 
d="M410 453q-36 17 -51.5 32.5t-28.5 39.5t-18 59t-5 76q0 70 9.5 202.5t9.5 175.5q0 45 -8.5 71t-23.5 44.5t-35 29t-50.5 15.5t-67.5 7l4 81q2 39 2 59v20q101 0 163 -9q98 -15 153 -49q45 -27 69 -80q27 -58 27 -125q0 -40 -12 -218t-12 -222q0 -86 35.5 -121t81.5 -47
q-6 -36 -7 -83q-27 -7 -48 -20q-25 -15 -38.5 -30.5t-22.5 -35.5t-14.5 -54.5t-7.5 -114.5l-4 -171q-2 -98 -6 -149q-6 -68 -18.5 -108t-36 -73t-53.5 -53.5t-73 -33.5q-53 -17 -124 -23q-39 -3 -132 -4q5 35 11 161q90 2 133.5 29t56 75t14.5 232q1 108 5 174
q4 72 13 107.5t23 60t34 41.5q17 15 53 32z" />
    <glyph glyph-name="asciitilde" unicode="~" horiz-adv-x="1365" 
d="M320 451l-129 104q16 37 31.5 66.5t42 67.5t47.5 58t50 36.5t60.5 25.5t65.5 9q30 0 59.5 -7t78 -25.5t109.5 -46t80 -35t38 -11.5t35 -4q48 0 86.5 33t74.5 101l129 -103q-26 -62 -45 -95t-48.5 -66.5t-63 -54.5t-74 -32.5t-86.5 -11.5q-17 0 -33.5 3t-43.5 11t-39 13
t-68 30l-41 19q-40 18 -71.5 30t-52.5 16t-36 4q-41 0 -78.5 -30.5t-77.5 -104.5z" />
    <glyph glyph-name="nbspace" unicode="&#xa0;" horiz-adv-x="512" 
 />
    <glyph glyph-name="exclamdown" unicode="&#xa1;" horiz-adv-x="621" 
d="M172 1017q113 -2 158 -2q31 0 150 2q-3 -43 -14 -260l-148 2q-43 0 -158 -2q9 129 12 260zM182 618q81 -2 142 -2q48 0 117 2l-20 -831v-135q-103 2 -145 2q-57 0 -151 -2l10 125z" />
    <glyph glyph-name="cent" unicode="&#xa2;" 
d="M1012 406q-26 -142 -37 -222q-79 -16 -110 -20.5t-87 -7.5q-3 -63 -3 -139v-52q-51 2 -109 2q-55 0 -114 -2l5 81q0 9 4 118q-61 15 -98 29.5t-76 41t-75 70.5t-61 99t-38.5 123t-13.5 139q0 78 15.5 150.5t43 133.5t68.5 111.5t85 81t84 45.5t110 29q1 53 1 152l-1 36
q80 -2 120 -2q45 0 111 2q-8 -70 -11 -172q58 -5 97 -12.5t95 -23.5q3 -66 18 -229q-126 56 -242 56q-100 0 -170 -51t-100.5 -129t-30.5 -170q0 -147 77 -229.5t205 -82.5q102 0 238 44z" />
    <glyph glyph-name="sterling" unicode="&#xa3;" 
d="M1202 252l-29 -152l-15 -92q-58 -19 -98 -25.5t-84 -6.5q-36 0 -69 3.5t-74.5 12.5t-76.5 18.5t-101 30t-95 28t-59 11t-59 3.5q-43 0 -84.5 -7.5t-74 -20t-53.5 -25t-54 -37.5q7 80 11 224q39 20 61.5 36.5t43 40.5t36.5 58t24.5 74.5t8.5 82.5q0 38 -8 78l-163 -5
q-14 -1 -49 -2q9 48 19 107l16 96l76 -1h39l-46 121q-10 24 -14 38.5t-7 30t-4.5 30.5t-1.5 31q0 92 53 173t164 132t301 51q72 0 140.5 -6.5t174.5 -27.5q2 -73 17 -240q-104 38 -172 51t-123 13q-46 0 -88 -10t-72.5 -27t-52 -41t-31 -48.5t-9.5 -55.5q0 -29 7 -57.5
t28 -82.5t25 -71h44l385 5q-8 -33 -18 -93t-21 -114q-107 2 -206 2q-81 0 -150 -3q6 -50 6 -107q0 -56 -19 -104.5t-63 -112.5h53q10 0 36.5 -2t59.5 -5t39 -5l101 -24q21 -5 55 -10t60.5 -7.5t46.5 -2.5q111 0 213 49z" />
    <glyph glyph-name="currency" unicode="&#xa4;" 
d="M244 977l-127 129q69 60 134 126l132 -142q121 59 260 59q143 0 264 -63l149 146q38 -45 119 -127l-142 -133q35 -53 53.5 -122t18.5 -139q0 -76 -21.5 -150t-60.5 -133l126 -128q-50 -42 -134 -125l-120 129q-59 -33 -131 -50.5t-150 -17.5q-66 0 -132.5 14.5
t-137.5 53.5l-133 -130q-46 54 -120 127l130 122q-41 67 -56 129t-15 124q0 83 24 161t70 140zM634 978q-75 0 -139 -36.5t-94.5 -107.5t-30.5 -156q0 -78 26 -139t84 -98.5t140 -37.5q80 0 141.5 37t92.5 109.5t31 160.5q0 80 -27.5 142t-86.5 94t-137 32z" />
    <glyph glyph-name="yen" unicode="&#xa5;" 
d="M111 446q9 74 13 164q242 -5 350 -5q-27 50 -98 175l-123 -1l-147 -3q10 82 13 164q147 -3 169 -3l-245 428q84 -2 147 -2q65 0 147 2q61 -130 151 -296t146 -276q92 158 193.5 317.5t154.5 254.5q85 -2 141 -2q58 0 141 2l-283 -428l194 3q-12 -76 -18 -164
q-223 5 -275 5l-112 -176l86 1l104 1l179 3q-12 -77 -18 -164q-245 5 -380 5l-10 -199q-3 -55 -7 -252q-84 2 -140 2q-58 0 -141 -2l26 335l6 116l-87 -1l-122 -1z" />
    <glyph glyph-name="brokenbar" unicode="&#xa6;" horiz-adv-x="1024" 
d="M383 1365h259v-707h-259v707zM383 314h259v-655h-259v655z" />
    <glyph glyph-name="section" unicode="&#xa7;" horiz-adv-x="1162" 
d="M967 1327q-2 -32 -3.5 -99.5t-1.5 -101.5q-96 37 -155 48.5t-102 11.5q-53 0 -90.5 -19t-60.5 -53t-23 -74t18 -70t47 -55.5t145 -94.5q50 -30 103 -64.5t96 -71t68 -78.5t35 -82.5t10 -82.5q0 -98 -53 -191t-172 -178q35 -36 53 -63.5t31 -69t13 -89.5q0 -95 -51 -172.5
t-141 -121.5t-203 -44q-78 0 -166.5 15.5t-208.5 52.5q4 95 4 217q96 -41 161 -59t118 -18t94 18t64 56.5t23 80.5q0 24 -6.5 44.5t-28.5 47.5t-68.5 60t-98.5 63q-113 64 -136 80q-56 38 -100 88.5t-64 102.5t-20 112q0 102 58 196.5t174 170.5q-38 41 -56 68.5t-29.5 65.5
t-11.5 82q0 89 48.5 169t134.5 122t221 42q72 0 143 -11.5t188 -50.5zM684 196q36 26 54 44t32.5 41.5t22 44t7.5 41.5t-8 57.5t-19 61.5t-25.5 43.5t-38 38t-66.5 44.5l-92 53q-38 22 -76 46q-63 -35 -98 -87.5t-35 -108.5q0 -31 10.5 -59.5t32.5 -55.5t69 -60.5t122 -78
t108 -65.5z" />
    <glyph glyph-name="dieresis" unicode="&#xa8;" horiz-adv-x="1024" 
d="M608 1196l9 162q66 -2 104 -2t100 2l-6 -162q-60 2 -99 2q-34 0 -108 -2zM270 1196l8 162q67 -2 105 -2t100 2q-2 -21 -6 -162q-60 2 -99 2q-34 0 -108 -2z" />
    <glyph glyph-name="copyright" unicode="&#xa9;" horiz-adv-x="1660" 
d="M864 1386q156 0 294 -43.5t240 -140.5t146 -221.5t44 -267.5q0 -154 -49 -295.5t-148.5 -239t-250.5 -148.5t-316 -51q-159 0 -306 47t-245 138t-143 217.5t-45 266.5q0 157 55.5 303t160 244t253.5 144.5t310 46.5zM861 1271q-135 0 -258 -38.5t-213 -127t-132.5 -208
t-42.5 -249.5q0 -121 43.5 -231.5t128 -184t199.5 -106t243 -32.5q135 0 255.5 36.5t206.5 120.5t126.5 200.5t40.5 246.5q0 124 -37 234.5t-119 189t-197 114t-244 35.5zM1102 463q-15 -73 -24 -145q-121 -21 -215 -21q-130 0 -230 49t-147 131.5t-47 194.5q0 123 59 218.5
t164.5 143t235.5 47.5q94 0 205 -21q3 -71 9 -143q-69 19 -112.5 25t-82.5 6q-85 0 -152 -33.5t-104 -99t-37 -141.5q0 -114 71 -180.5t195 -66.5q84 0 212 36z" />
    <glyph glyph-name="ordfeminine" unicode="&#xaa;" horiz-adv-x="742" 
d="M126 1008q11 55 14 78l7 53q156 36 278 36q74 0 132.5 -17.5t88 -53t29.5 -96.5q0 -36 -9 -172t-11 -290q-50 1 -94 1t-96 -1q7 65 9.5 98.5t12.5 210.5q-23 -13 -40 -20t-65 -19.5t-75.5 -22t-47.5 -23t-28 -28t-8 -31.5q0 -30 24.5 -51.5t77.5 -21.5q25 0 46 4t63 18
q-18 -54 -34 -116q-64 -12 -123 -12q-80 0 -130.5 21t-75 66.5t-24.5 91.5q0 51 32.5 94t93 70t183.5 52q82 17 105 35.5t23 42.5q0 27 -25.5 43t-77.5 16q-111 0 -255 -56z" />
    <glyph glyph-name="guillemotleft" unicode="&#xab;" horiz-adv-x="967" 
d="M474 877l-130 -280q-10 -23 -28 -67l85 -233l45 -114q-57 2 -97 2q-39 0 -90 -2l-29 59q-12 26 -41 81l-49 94q-21 39 -58 113q93 155 198 347q59 -2 93 -2q39 0 101 2zM844 877l-114 -246q-17 -38 -44 -101l52 -146q11 -29 34 -87l44 -114q-57 2 -97 2q-38 0 -90 -2
l-69 140l-107 207q92 155 197 347q59 -2 94 -2q39 0 100 2z" />
    <glyph glyph-name="logicalnot" unicode="&#xac;" horiz-adv-x="1024" 
d="M704 0v357h-636v226h887v-583h-251z" />
    <glyph glyph-name="sfthyphen" unicode="&#xad;" horiz-adv-x="528" 
d="M-3 428q9 97 11 202q145 -4 258 -4q114 0 259 4q-8 -85 -11 -202q-145 5 -260 5q-112 0 -257 -5z" />
    <glyph glyph-name="registered" unicode="&#xae;" horiz-adv-x="1660" 
d="M864 1386q156 0 294 -43.5t240 -140.5t146 -221.5t44 -267.5q0 -154 -49 -295.5t-148.5 -239t-250.5 -148.5t-316 -51q-159 0 -306 47t-245 138t-143 217.5t-45 266.5q0 157 55.5 303t160 244t253.5 144.5t310 46.5zM861 1271q-135 0 -258 -38.5t-213 -127t-132.5 -208
t-42.5 -249.5q0 -121 43.5 -231.5t128 -184t199.5 -106t243 -32.5q135 0 255.5 36.5t206.5 120.5t126.5 200.5t40.5 246.5q0 124 -37 234.5t-119 189t-197 114t-244 35.5zM528 310q17 164 25.5 376t8.5 383q90 -2 121 -2q33 0 86.5 1.5t101.5 1.5q68 0 121 -7t95 -34
t61.5 -65t19.5 -87q0 -82 -48 -140.5t-159 -84.5q29 -59 94 -168.5t101 -174.5q-64 2 -104 2q-37 0 -99 -1l-56 130q-5 11 -21.5 44.5t-61.5 118.5l-70 136q52 -9 84 -9q48 0 86 15t57.5 45t19.5 64q0 26 -11 44t-31 28.5t-50 14t-83 3.5q-30 0 -82 -2q-6 -114 -12.5 -325
t-6.5 -307q-60 1 -95 1q-38 0 -92 -1z" />
    <glyph glyph-name="overscore" unicode="&#xaf;" horiz-adv-x="1024" 
d="M0 1600h1024v-160h-1024v160z" />
    <glyph glyph-name="degree" unicode="&#xb0;" horiz-adv-x="604" 
d="M536 1176q0 -55 -28 -103t-76 -75.5t-103 -27.5t-103 27.5t-75.5 76t-27.5 102.5q0 55 27.5 103t75.5 75.5t103 27.5t103.5 -27.5t76 -75.5t27.5 -103zM427 1176q0 42 -28.5 71.5t-69.5 29.5q-40 0 -69 -29.5t-29 -71.5t29 -71.5t69 -29.5q41 0 69.5 30t28.5 71z" />
    <glyph glyph-name="plusminus" unicode="&#xb1;" 
d="M109 721q7 55 11 181l124 -1l176 -2l129 -1l11 357q34 -2 96 -2q63 0 96 2q-7 -109 -20 -357l436 4q-9 -77 -11 -181q-266 4 -433 4l-11 -357q-38 2 -96 2q-59 0 -96 -2q7 95 20 357l-164 -1zM82 124q6 45 11 181q225 -4 523 -4q296 0 525 4q-8 -78 -11 -181
q-284 4 -524 4q-241 0 -524 -4z" />
    <glyph glyph-name="twosuperior" unicode="&#xb2;" horiz-adv-x="792" 
d="M85 546q1 10 6 130q149 133 263.5 257t139.5 173q13 25 13 49q0 32 -20 51t-53.5 29.5t-77.5 10.5q-42 0 -93 -7.5t-133 -27.5q16 81 24 143q141 26 273 26q92 0 159 -24t102 -67t35 -97q0 -27 -7 -56.5t-34 -76.5t-86 -116t-125.5 -137.5t-135.5 -130.5l43 -1
q132 0 193 1.5t123 7.5q-8 -85 -11 -137q-138 1 -290 1q-174 0 -308 -1z" />
    <glyph glyph-name="threesuperior" unicode="&#xb3;" horiz-adv-x="792" 
d="M103 564q-8 111 -14 151q130 -47 239 -47q83 0 134.5 37t51.5 95q0 53 -46.5 82t-150.5 29q-45 0 -98 -6q9 102 10 141q42 -6 76 -6q49 0 97.5 9t74 39t25.5 65q0 41 -33.5 68.5t-124.5 27.5q-89 0 -197 -26q4 15 15 69.5t12 69.5q125 18 226 18q100 0 172.5 -22.5
t106 -70t33.5 -109.5q0 -42 -16.5 -82t-47 -68.5t-97.5 -56.5q86 -20 124 -68t38 -119t-40.5 -129.5t-123 -90.5t-189.5 -32q-63 0 -120 7t-137 25z" />
    <glyph glyph-name="acute" unicode="&#xb4;" horiz-adv-x="1024" 
d="M408 1154l37 92q11 30 27 72t31 79q81 -2 149 -2q56 0 150 2q-67 -83 -100 -130l-83 -113q-53 2 -108 2q-49 0 -103 -2z" />
    <glyph glyph-name="mu" unicode="&#xb5;" 
d="M146 1017q94 -2 149 -2q56 0 138 2q-36 -481 -36 -598q0 -126 53.5 -171.5t127.5 -45.5q51 0 95 20t75 55t52 98q17 47 25 130q6 55 12 190q7 167 10 322q98 -2 151 -2q59 0 133 2q-20 -246 -36 -538q-11 -211 -15 -479q-87 2 -135 2q-58 0 -133 -2l5 166
q-25 -54 -47.5 -84t-56.5 -53.5t-80.5 -36t-96.5 -12.5q-38 0 -70.5 6.5t-54.5 17.5t-34.5 22.5t-37.5 41.5v-77l-1 -188l-2 -163q0 -21 2 -99q-85 1 -132 1l-137 -1q25 287 51 761.5t26 714.5z" />
    <glyph glyph-name="paragraph" unicode="&#xb6;" 
d="M1021 1228l-18 -365l-52 -1202q0 -8 -5 -135q-33 2 -75 2t-75 -2l45 957l29 746h-124l-74 -1703q-34 2 -76 2t-75 -2l47 1078q-66 3 -90 6q-50 7 -99 24q-65 23 -113 58t-82 83t-52 105.5t-18 121.5q0 86 32 163t91.5 125.5t124.5 61.5t164 13l337 -2q174 0 329 2
q-6 -63 -8 -140q-30 1 -163 3z" />
    <glyph glyph-name="middot" unicode="&#xb7;" horiz-adv-x="319" 
d="M9 554q4 73 12 292l164 -3q27 0 143 3q-5 -57 -15 -292l-142 2q-14 0 -162 -2z" />
    <glyph glyph-name="cedilla" unicode="&#xb8;" horiz-adv-x="1024" 
d="M696 -90l-81 -158l-48 -97q-75 1 -147 1q-71 0 -153 -1q97 115 207 259q43 -7 122 -7q47 0 100 3z" />
    <glyph glyph-name="onesuperior" unicode="&#xb9;" horiz-adv-x="792" 
d="M334 546q6 76 8 124l11 206q9 158 14 318q-24 -13 -113 -74q8 96 8 168q99 57 125 77q30 -1 86 -1q61 0 98 2q-12 -161 -29 -476q-9 -167 -9 -344q-42 1 -94 1q-61 0 -105 -1z" />
    <glyph glyph-name="ordmasculine" unicode="&#xba;" horiz-adv-x="806" 
d="M427 1175q97 0 178 -37t122.5 -108.5t41.5 -161.5q0 -97 -46.5 -178.5t-128 -119.5t-182.5 -38q-98 0 -178 36.5t-123 110.5t-43 163q0 103 47.5 180t132 115t179.5 38zM427 1037q-51 0 -90.5 -23.5t-59 -71t-19.5 -103.5q0 -82 42.5 -127.5t111.5 -45.5q52 0 90 24.5
t57.5 72t19.5 104.5q0 48 -16 87.5t-52 61t-84 21.5z" />
    <glyph glyph-name="guillemotright" unicode="&#xbb;" horiz-adv-x="970" 
d="M486 877q64 -2 100 -2q37 0 94 2q98 -215 167 -347q-39 -67 -102 -169.5t-106 -177.5q-54 2 -90 2q-42 0 -96 -2l105 222q21 46 55 125l-18 55q-8 23 -40 109zM115 877q64 -2 101 -2q36 0 93 2q92 -202 167 -347q-39 -67 -101.5 -168.5t-105.5 -178.5q-54 2 -90 2
q-43 0 -97 -2l106 222q21 46 54 125l-18 55q-8 23 -40 109z" />
    <glyph glyph-name="onequarter" unicode="&#xbc;" horiz-adv-x="1792" 
d="M334 546q6 76 8 124l11 206q9 158 14 318q-24 -13 -113 -74q8 96 8 168q99 57 125 77q30 -1 86 -1q61 0 98 2q-12 -161 -29 -476q-9 -167 -9 -344q-42 1 -94 1q-61 0 -105 -1zM442 0l326 573l439 792q48 -2 75 -2q29 0 80 2l-265 -465l-416 -750l-78 -150q-40 2 -68 2
q-37 0 -93 -2zM1387 0q9 97 15 244l-75 -1l-148 -1q-108 -2 -122 -2q2 16 4.5 73.5t2.5 79.5q50 62 118.5 152t106 142.5t89.5 131.5q60 -1 123 -1t110 1q-18 -260 -22 -441q14 -1 66 -1q50 0 67 3q-3 -45 -3 -113v-25q-39 2 -136 2q-2 -29 -3.5 -96t-1.5 -109l1 -39
q-48 1 -94 1q-45 0 -98 -1zM1425 372l13 307q-49 -72 -105 -146l-119 -161h211z" />
    <glyph glyph-name="onehalf" unicode="&#xbd;" horiz-adv-x="1792" 
d="M334 546q6 76 8 124l11 206q9 158 14 318q-24 -13 -113 -74q8 96 8 168q99 57 125 77q30 -1 86 -1q61 0 98 2q-12 -161 -29 -476q-9 -167 -9 -344q-42 1 -94 1q-61 0 -105 -1zM442 0l326 573l439 792q48 -2 75 -2q29 0 80 2l-265 -465l-416 -750l-78 -150q-40 2 -68 2
q-37 0 -93 -2zM1062 0q1 10 6 130q70 63 140 130.5t140 145t96.5 114t32.5 54.5t6 34q0 33 -19.5 52t-53 29.5t-78.5 10.5q-41 0 -92 -7.5t-133 -27.5q16 83 24 143q140 25 272 25q88 0 154 -21.5t104.5 -65t38.5 -100.5q0 -28 -7 -57t-34.5 -76t-86 -116t-125 -137.5
t-136.5 -130.5l44 -1q132 0 193 1.5t122 7.5l-5 -63q-3 -27 -6 -74q-137 1 -290 1q-173 0 -307 -1z" />
    <glyph glyph-name="threequarters" unicode="&#xbe;" horiz-adv-x="1792" 
d="M103 564q-8 111 -14 151q130 -47 239 -47q83 0 134.5 37t51.5 95q0 53 -46.5 82t-150.5 29q-45 0 -98 -6q9 102 10 141q42 -6 76 -6q49 0 97.5 9t74 39t25.5 65q0 41 -33.5 68.5t-124.5 27.5q-89 0 -197 -26q4 15 15 69.5t12 69.5q125 18 226 18q100 0 172.5 -22.5
t106 -70t33.5 -109.5q0 -42 -16.5 -82t-47 -68.5t-97.5 -56.5q86 -20 124 -68t38 -119t-40.5 -129.5t-123 -90.5t-189.5 -32q-63 0 -120 7t-137 25zM442 0l286 503l479 862q48 -2 75 -2q29 0 80 2l-270 -473l-411 -742l-78 -150q-40 2 -68 2q-37 0 -93 -2zM1386 0
q12 133 16 244l-75 -1l-148 -1q-108 -2 -123 -2q3 17 5.5 74.5t2.5 78.5q50 63 117.5 151.5t106 142t90.5 132.5q60 -1 122 -1q63 0 110 1q-17 -245 -22 -441q15 -1 66 -1t67 3q-2 -43 -2 -113v-25q-39 2 -136 2q-2 -30 -3.5 -93.5t-1.5 -111.5l1 -39q-48 1 -94 1
q-45 0 -99 -1zM1425 372l12 307q-44 -66 -110 -154l-114 -153h212z" />
    <glyph glyph-name="questiondown" unicode="&#xbf;" horiz-adv-x="1012" 
d="M728 1017q-10 -121 -19 -253q-83 2 -152 2q-75 0 -151 -2q6 79 8.5 142t6.5 111q107 -2 149 -2q43 0 158 2zM689 668l-6 -100q-3 -49 -8 -86t-11.5 -58t-18.5 -42t-41 -56.5t-88 -99.5l-84 -93q-26 -29 -44.5 -57.5t-25 -48.5t-6.5 -41q0 -48 32 -83.5t92 -51t131 -15.5
q67 0 142 11.5t187 44.5l-17 -85q-16 -79 -25 -148q-203 -31 -385 -31q-95 0 -184 17t-157 57.5t-104.5 102.5t-36.5 130q0 36 8.5 72t26.5 72.5t47 77t63 78t98 102.5q52 54 63 67q25 28 38 50t21 46t13.5 56t15.5 112q65 -2 128 -2t136 2z" />
    <glyph glyph-name="Agrave" unicode="&#xc0;" horiz-adv-x="1542" 
d="M-63 0q104 184 244 455l263 505q123 234 204 405q130 -2 184 -2q95 0 186 2l143 -409l311 -846l43 -110l-150 2q-52 0 -175 -2q-24 89 -75.5 240t-87.5 245h-526q-117 -238 -228 -485l-163 2q-46 0 -173 -2zM590 693h383l-157 462l-81 -168zM946 1492q-58 2 -103 2
q-59 0 -109 -2l-75 109q-35 51 -97 134q96 -2 151 -2q69 0 148 2l26 -75q12 -36 28 -80z" />
    <glyph glyph-name="Aacute" unicode="&#xc1;" horiz-adv-x="1542" 
d="M-63 0q104 184 244 455l263 505q123 234 204 405q130 -2 184 -2q95 0 186 2l143 -409l311 -846l43 -110l-150 2q-52 0 -175 -2q-24 89 -75.5 240t-87.5 245h-526q-117 -238 -228 -485l-163 2q-46 0 -173 -2zM590 693h383l-157 462l-81 -168zM715 1492l37 92q11 30 27 72
t31 79q81 -2 149 -2q56 0 150 2q-67 -83 -100 -130l-83 -113q-53 2 -108 2q-49 0 -103 -2z" />
    <glyph glyph-name="Acircumflex" unicode="&#xc2;" horiz-adv-x="1542" 
d="M-63 0q104 184 244 455l263 505q123 234 204 405q130 -2 184 -2q95 0 186 2l143 -409l311 -846l43 -110l-150 2q-52 0 -175 -2q-24 89 -75.5 240t-87.5 245h-526q-117 -238 -228 -485l-163 2q-46 0 -173 -2zM590 693h383l-157 462l-81 -168zM566 1503q62 114 118 229
q88 -1 161 -1q47 0 150 1q44 -104 106 -229q-53 2 -86 2q-23 0 -83 -2l-91 131l-100 -131q-40 2 -84 2q-51 0 -91 -2z" />
    <glyph glyph-name="Atilde" unicode="&#xc3;" horiz-adv-x="1542" 
d="M-63 0q104 184 244 455l263 505q123 234 204 405q130 -2 184 -2q95 0 186 2l143 -409l311 -846l43 -110l-150 2q-52 0 -175 -2q-24 89 -75.5 240t-87.5 245h-526q-117 -238 -228 -485l-163 2q-46 0 -173 -2zM590 693h383l-157 462l-81 -168zM549 1516q1 78 17.5 130
t46.5 73.5t68 21.5q13 0 27 -2.5t28 -8t24.5 -11.5t40.5 -25l52 -33q18 -11 34 -19t33 -8q13 0 23.5 5t17.5 16.5t9.5 25.5t5.5 41q42 -2 63 -2t65 2q0 -68 -13.5 -115t-43.5 -78.5t-81 -31.5q-19 0 -37.5 5t-38.5 16t-70 43t-66 39t-31 7q-17 0 -29.5 -11t-16 -27t-5.5 -53
q-39 2 -63 2t-60 -2z" />
    <glyph glyph-name="Adieresis" unicode="&#xc4;" horiz-adv-x="1542" 
d="M-63 0q104 184 244 455l263 505q123 234 204 405q130 -2 184 -2q95 0 186 2l143 -409l311 -846l43 -110l-150 2q-52 0 -175 -2q-24 89 -75.5 240t-87.5 245h-526q-117 -238 -228 -485l-163 2q-46 0 -173 -2zM590 693h383l-157 462l-81 -168zM903 1538l9 162q66 -2 104 -2
t100 2l-6 -162q-60 2 -99 2q-34 0 -108 -2zM565 1538l8 162q67 -2 105 -2t100 2q-2 -21 -6 -162q-60 2 -99 2q-34 0 -108 -2z" />
    <glyph glyph-name="Aring" unicode="&#xc5;" horiz-adv-x="1542" 
d="M1030 1646q0 -52 -26 -97.5t-71.5 -71.5t-97.5 -26t-97.5 26.5t-71.5 71.5t-26 97t26 97.5t71.5 71.5t97.5 26t97.5 -26t71.5 -71.5t26 -97.5zM921 1645q0 35 -25.5 60.5t-60.5 25.5t-60.5 -25.5t-25.5 -60.5q0 -36 25.5 -61.5t60.5 -25.5t60.5 25.5t25.5 61.5zM-63 0
q104 184 244 455l263 505q123 234 204 405q130 -2 184 -2q95 0 186 2l143 -409l311 -846l43 -110l-150 2q-52 0 -175 -2q-24 89 -75.5 240t-87.5 245h-526q-117 -238 -228 -485l-163 2q-46 0 -173 -2zM590 693h383l-157 462l-81 -168z" />
    <glyph glyph-name="AE" unicode="&#xc6;" horiz-adv-x="1830" 
d="M-96 0l203 387l427 848q10 21 21 45t38 85q285 -2 606 -2l207 1l353 1q-10 -114 -14 -210q-138 6 -347 6q-63 0 -349 -4l74 -363q89 -3 281 -3q141 0 245 4l-7 -95q-3 -32 -5 -112q-94 3 -231 3q-176 0 -248 -3l81 -393h67q142 0 211 2.5t173 10.5q-10 -112 -12 -208
q-230 2 -324 2q-170 0 -373 -2l-7 45q-4 18 -19 103l-50 266q-7 37 -19 92h-421q-124 -237 -247 -506q-126 2 -157 2q-47 0 -157 -2zM544 694h328l-30 164q-21 119 -35 189t-26 136q-34 -74 -58 -121z" />
    <glyph glyph-name="Ccedilla" unicode="&#xc7;" horiz-adv-x="1329" 
d="M1235 250q-22 -117 -38 -238q-114 -20 -209 -28t-163 -8q-150 0 -286.5 42t-246 132.5t-158.5 219.5t-49 282q0 166 59 307t169.5 238t261.5 144.5t315 47.5q162 0 354 -37q3 -89 6 -126l7 -107q-113 30 -188 41t-143 11q-107 0 -205.5 -32.5t-174 -103.5t-116 -171.5
t-40.5 -209.5q0 -130 50 -233t160.5 -167t273.5 -64q151 0 361 60zM959 -91q-73 -139 -139 -278q-96 2 -154 2q-46 0 -156 -2l97 127q47 61 115 154q58 -6 135 -6q30 0 102 3z" />
    <glyph glyph-name="Egrave" unicode="&#xc8;" horiz-adv-x="1251" 
d="M117 0l29 383l21 443l13 403v136q247 -2 515 -2l192 1l289 1l-12 -216l-95 5q-39 2 -108 3t-141 1q-156 0 -201.5 -0.5t-137.5 -3.5l-16 -355q137 -3 276 -3q96 0 324 6q-8 -91 -14 -218q-267 3 -306 3q-118 0 -294 -6l-16 -374l110 -1q48 0 220 2l217 4l145 7
q-10 -116 -14 -219q-260 2 -469 2l-329 -1zM788 1492q-58 2 -103 2q-59 0 -109 -2l-75 109q-35 51 -97 134q96 -2 151 -2q69 0 148 2l26 -75q12 -36 28 -80z" />
    <glyph glyph-name="Eacute" unicode="&#xc9;" horiz-adv-x="1251" 
d="M117 0l29 383l21 443l13 403v136q247 -2 515 -2l192 1l289 1l-12 -216l-95 5q-39 2 -108 3t-141 1q-156 0 -201.5 -0.5t-137.5 -3.5l-16 -355q137 -3 276 -3q96 0 324 6q-8 -91 -14 -218q-267 3 -306 3q-118 0 -294 -6l-16 -374l110 -1q48 0 220 2l217 4l145 7
q-10 -116 -14 -219q-260 2 -469 2l-329 -1zM554 1492l37 92q11 30 27 72t31 79q81 -2 149 -2q56 0 150 2q-67 -83 -100 -130l-83 -113q-53 2 -108 2q-49 0 -103 -2z" />
    <glyph glyph-name="Ecircumflex" unicode="&#xca;" horiz-adv-x="1251" 
d="M117 0l29 383l21 443l13 403v136q247 -2 515 -2l192 1l289 1l-12 -216l-95 5q-39 2 -108 3t-141 1q-156 0 -201.5 -0.5t-137.5 -3.5l-16 -355q137 -3 276 -3q96 0 324 6q-8 -91 -14 -218q-267 3 -306 3q-118 0 -294 -6l-16 -374l110 -1q48 0 220 2l217 4l145 7
q-10 -116 -14 -219q-260 2 -469 2l-329 -1zM408 1503q62 114 118 229q88 -1 161 -1q47 0 150 1q44 -104 106 -229q-53 2 -86 2q-23 0 -83 -2l-91 131l-100 -131q-40 2 -84 2q-51 0 -91 -2z" />
    <glyph glyph-name="Edieresis" unicode="&#xcb;" horiz-adv-x="1251" 
d="M117 0l29 383l21 443l13 403v136q247 -2 515 -2l192 1l289 1l-12 -216l-95 5q-39 2 -108 3t-141 1q-156 0 -201.5 -0.5t-137.5 -3.5l-16 -355q137 -3 276 -3q96 0 324 6q-8 -91 -14 -218q-267 3 -306 3q-118 0 -294 -6l-16 -374l110 -1q48 0 220 2l217 4l145 7
q-10 -116 -14 -219q-260 2 -469 2l-329 -1zM747 1538l9 162q66 -2 104 -2t100 2l-6 -162q-60 2 -99 2q-34 0 -108 -2zM409 1538l8 162q67 -2 105 -2t100 2q-2 -21 -6 -162q-60 2 -99 2q-34 0 -108 -2z" />
    <glyph glyph-name="Igrave" unicode="&#xcc;" horiz-adv-x="602" 
d="M106 0q24 344 39 705.5t15 552.5l-1 107l167 -2q14 0 153 2q-41 -526 -52 -1365l-147 2q-37 0 -174 -2zM453 1493q-58 2 -103 2q-59 0 -109 -2l-75 109q-35 51 -97 134q96 -2 151 -2q69 0 148 2l26 -75q12 -36 28 -80z" />
    <glyph glyph-name="Iacute" unicode="&#xcd;" horiz-adv-x="602" 
d="M120 0q24 344 39 705.5t15 552.5l-1 107l167 -2q14 0 153 2q-41 -526 -52 -1365l-147 2q-37 0 -174 -2zM227 1493l37 92q11 30 27 72t31 79q81 -2 149 -2q56 0 150 2q-67 -83 -100 -130l-83 -113q-53 2 -108 2q-49 0 -103 -2z" />
    <glyph glyph-name="Icircumflex" unicode="&#xce;" horiz-adv-x="602" 
d="M123 0q24 344 39 705.5t15 552.5l-1 107l167 -2q14 0 153 2q-41 -526 -52 -1365l-147 2q-37 0 -174 -2zM78 1503q62 114 118 229q88 -1 161 -1q47 0 150 1q44 -104 106 -229q-53 2 -86 2q-23 0 -83 -2l-91 131l-100 -131q-40 2 -84 2q-51 0 -91 -2z" />
    <glyph glyph-name="Idieresis" unicode="&#xcf;" horiz-adv-x="602" 
d="M142 0q24 344 39 705.5t15 552.5l-1 107l167 -2q14 0 153 2q-41 -526 -52 -1365l-147 2q-37 0 -174 -2zM435 1538l9 162q66 -2 104 -2t100 2l-6 -162q-60 2 -99 2q-34 0 -108 -2zM97 1538l8 162q67 -2 105 -2t100 2q-2 -21 -6 -162q-60 2 -99 2q-34 0 -108 -2z" />
    <glyph glyph-name="Eth" unicode="&#xd0;" horiz-adv-x="1546" 
d="M18 605q12 102 15 183q6 -1 132 -3l11 317q4 102 4 164l-1 99q111 -2 209 -2q87 0 188.5 3t207.5 3q116 0 217 -13.5t177 -51t131 -96t91 -128.5t54.5 -157.5t18.5 -178.5q0 -172 -59.5 -327.5t-177 -257t-261 -130.5t-326.5 -29l-340 2q-31 0 -190 -2q31 355 39 608z
M451 784q162 0 303 4q-9 -87 -13 -183q-137 4 -298 4l-17 -396q86 -4 167 -4q88 0 165.5 9t133.5 29.5t112.5 69.5t92 114t54 145.5t18.5 162.5q0 94 -24 173.5t-80 142.5t-137 84.5t-202 21.5q-113 0 -259 -4z" />
    <glyph glyph-name="Ntilde" unicode="&#xd1;" horiz-adv-x="1611" 
d="M118 0q19 179 29 402l23 490q12 266 12 473q116 -2 197 -2q60 0 175 2q113 -197 312 -514t321 -525l37 928q1 33 1 111q94 -2 142 -2q19 0 140 2l-25 -367l-31 -628l-12 -370q-104 2 -177 2q-58 0 -188 -2q-50 89 -76 132q-41 66 -175 272q-88 136 -220 348
q-97 156 -166 272q-8 -162 -25 -601q-7 -179 -11 -423q-94 2 -136 2q-33 0 -147 -2zM577 1516q1 78 17.5 130t46.5 73.5t68 21.5q13 0 27 -2.5t28 -8t24.5 -11.5t40.5 -25l52 -33q18 -11 34 -19t33 -8q13 0 23.5 5t17.5 16.5t9.5 25.5t5.5 41q42 -2 63 -2t65 2
q0 -68 -13.5 -115t-43.5 -78.5t-81 -31.5q-19 0 -37.5 5t-38.5 16t-70 43t-66 39t-31 7q-17 0 -29.5 -11t-16 -27t-5.5 -53q-39 2 -63 2t-60 -2z" />
    <glyph glyph-name="Ograve" unicode="&#xd2;" horiz-adv-x="1709" 
d="M894 1389q149 0 286 -41t243 -133.5t160 -215.5t54 -287q0 -154 -51 -294.5t-158 -242t-260.5 -150.5t-322.5 -49q-160 0 -307.5 45t-254 141t-152.5 220.5t-46 269.5q0 159 57.5 304t169 240t261 144t321.5 49zM878 1176q-151 0 -263 -69.5t-168.5 -190t-56.5 -260.5
q0 -130 54.5 -239.5t167.5 -167t244 -57.5q99 0 189 34t155.5 103.5t98.5 167.5t33 204q0 99 -29.5 190t-91.5 156.5t-149.5 97t-183.5 31.5zM1009 1492q-58 2 -103 2q-59 0 -109 -2l-75 109q-35 51 -97 134q96 -2 151 -2q69 0 148 2l26 -75q12 -36 28 -80z" />
    <glyph glyph-name="Oacute" unicode="&#xd3;" horiz-adv-x="1709" 
d="M894 1389q149 0 286 -41t243 -133.5t160 -215.5t54 -287q0 -154 -51 -294.5t-158 -242t-260.5 -150.5t-322.5 -49q-160 0 -307.5 45t-254 141t-152.5 220.5t-46 269.5q0 159 57.5 304t169 240t261 144t321.5 49zM878 1176q-151 0 -263 -69.5t-168.5 -190t-56.5 -260.5
q0 -130 54.5 -239.5t167.5 -167t244 -57.5q99 0 189 34t155.5 103.5t98.5 167.5t33 204q0 99 -29.5 190t-91.5 156.5t-149.5 97t-183.5 31.5zM779 1492l37 92q11 30 27 72t31 79q81 -2 149 -2q56 0 150 2q-67 -83 -100 -130l-83 -113q-53 2 -108 2q-49 0 -103 -2z" />
    <glyph glyph-name="Ocircumflex" unicode="&#xd4;" horiz-adv-x="1709" 
d="M894 1389q149 0 286 -41t243 -133.5t160 -215.5t54 -287q0 -154 -51 -294.5t-158 -242t-260.5 -150.5t-322.5 -49q-160 0 -307.5 45t-254 141t-152.5 220.5t-46 269.5q0 159 57.5 304t169 240t261 144t321.5 49zM878 1176q-151 0 -263 -69.5t-168.5 -190t-56.5 -260.5
q0 -130 54.5 -239.5t167.5 -167t244 -57.5q99 0 189 34t155.5 103.5t98.5 167.5t33 204q0 99 -29.5 190t-91.5 156.5t-149.5 97t-183.5 31.5zM629 1503q62 114 118 229q88 -1 161 -1q47 0 150 1q44 -104 106 -229q-53 2 -86 2q-23 0 -83 -2l-91 131l-100 -131q-40 2 -84 2
q-51 0 -91 -2z" />
    <glyph glyph-name="Otilde" unicode="&#xd5;" horiz-adv-x="1709" 
d="M894 1389q149 0 286 -41t243 -133.5t160 -215.5t54 -287q0 -154 -51 -294.5t-158 -242t-260.5 -150.5t-322.5 -49q-160 0 -307.5 45t-254 141t-152.5 220.5t-46 269.5q0 159 57.5 304t169 240t261 144t321.5 49zM878 1176q-151 0 -263 -69.5t-168.5 -190t-56.5 -260.5
q0 -130 54.5 -239.5t167.5 -167t244 -57.5q99 0 189 34t155.5 103.5t98.5 167.5t33 204q0 99 -29.5 190t-91.5 156.5t-149.5 97t-183.5 31.5zM623 1516q1 78 17.5 130t46.5 73.5t68 21.5q13 0 27 -2.5t28 -8t24.5 -11.5t40.5 -25l52 -33q18 -11 34 -19t33 -8q13 0 23.5 5
t17.5 16.5t9.5 25.5t5.5 41q42 -2 63 -2t65 2q0 -68 -13.5 -115t-43.5 -78.5t-81 -31.5q-19 0 -37.5 5t-38.5 16t-70 43t-66 39t-31 7q-17 0 -29.5 -11t-16 -27t-5.5 -53q-39 2 -63 2t-60 -2z" />
    <glyph glyph-name="Odieresis" unicode="&#xd6;" horiz-adv-x="1709" 
d="M894 1389q149 0 286 -41t243 -133.5t160 -215.5t54 -287q0 -154 -51 -294.5t-158 -242t-260.5 -150.5t-322.5 -49q-160 0 -307.5 45t-254 141t-152.5 220.5t-46 269.5q0 159 57.5 304t169 240t261 144t321.5 49zM878 1176q-151 0 -263 -69.5t-168.5 -190t-56.5 -260.5
q0 -130 54.5 -239.5t167.5 -167t244 -57.5q99 0 189 34t155.5 103.5t98.5 167.5t33 204q0 99 -29.5 190t-91.5 156.5t-149.5 97t-183.5 31.5zM966 1538l9 162q66 -2 104 -2t100 2l-6 -162q-60 2 -99 2q-34 0 -108 -2zM628 1538l8 162q67 -2 105 -2t100 2q-2 -21 -6 -162
q-60 2 -99 2q-34 0 -108 -2z" />
    <glyph glyph-name="multiply" unicode="&#xd7;" 
d="M307 268q-42 49 -122 130l325 305l-299 307q57 48 136 127l292 -311l321 312q40 -48 121 -129l-324 -306l298 -306q-54 -46 -136 -128l-292 311z" />
    <glyph glyph-name="Oslash" unicode="&#xd8;" horiz-adv-x="1694" 
d="M1157 1338l108 168q72 -2 128 -2q59 0 128 2l-163 -246q89 -62 148.5 -147t87 -189.5t27.5 -213.5q0 -154 -50.5 -294t-153.5 -240t-252.5 -150t-313.5 -50q-29 0 -58.5 2t-51 5t-38.5 6.5t-53 13.5l-110 29l-104 -165q-73 2 -124 2q-53 0 -124 -2l157 241
q-137 93 -198.5 240.5t-61.5 312.5q0 203 96.5 378.5t281.5 263t387 87.5q40 0 80 -4t69.5 -9t76 -18t81.5 -21zM1037 1156q-80 26 -164 26q-104 0 -196.5 -34t-162 -107t-105 -174.5t-35.5 -211.5q0 -91 29 -179t86 -149zM1213 1043l-551 -826q89 -31 185 -31q100 0 192 35
t158 106.5t98.5 170.5t32.5 207q0 96 -29 185.5t-86 152.5z" />
    <glyph glyph-name="Ugrave" unicode="&#xd9;" horiz-adv-x="1538" 
d="M173 1365q116 -2 157 -2q51 0 152 2l-47 -807q-1 -14 -1 -30q0 -135 38.5 -203t113 -99t170.5 -31q61 0 116 14q45 12 82 33q30 18 53 42q27 29 45 67q19 37 28 84q13 71 24 247l21 348q7 152 11 335q113 -2 168 -2l146 2l-31 -482l-20 -383q-9 -134 -28 -200
q-16 -55 -45 -102q-28 -42 -67 -75q-50 -43 -117 -74q-75 -35 -159 -51q-116 -22 -239 -22q-126 0 -236 23q-94 20 -172.5 62t-124.5 94q-37 42 -59 105q-25 70 -25 156q0 30 2 77.5t7 122.5l9 141q5 66 11 194l10 217q4 89 7 197zM927 1492q-58 2 -103 2q-59 0 -109 -2
l-75 109q-35 51 -97 134q96 -2 151 -2q69 0 148 2l26 -75q12 -36 28 -80z" />
    <glyph glyph-name="Uacute" unicode="&#xda;" horiz-adv-x="1538" 
d="M173 1365q116 -2 157 -2q51 0 152 2l-47 -807q-1 -14 -1 -30q0 -135 38.5 -203t113 -99t170.5 -31q61 0 116 14q45 12 82 33q30 18 53 42q27 29 45 67q19 37 28 84q13 71 24 247l21 348q7 152 11 335q113 -2 168 -2l146 2l-31 -482l-20 -383q-9 -134 -28 -200
q-16 -55 -45 -102q-28 -42 -67 -75q-50 -43 -117 -74q-75 -35 -159 -51q-116 -22 -239 -22q-126 0 -236 23q-94 20 -172.5 62t-124.5 94q-37 42 -59 105q-25 70 -25 156q0 30 2 77.5t7 122.5l9 141q5 66 11 194l10 217q4 89 7 197zM697 1492l37 92q11 30 27 72t31 79
q81 -2 149 -2q56 0 150 2q-67 -83 -100 -130l-83 -113q-53 2 -108 2q-49 0 -103 -2z" />
    <glyph glyph-name="Ucircumflex" unicode="&#xdb;" horiz-adv-x="1538" 
d="M173 1365q116 -2 157 -2q51 0 152 2l-47 -807q-1 -14 -1 -30q0 -135 38.5 -203t113 -99t170.5 -31q61 0 116 14q45 12 82 33q30 18 53 42q27 29 45 67q19 37 28 84q13 71 24 247l21 348q7 152 11 335q113 -2 168 -2l146 2l-31 -482l-20 -383q-9 -134 -28 -200
q-16 -55 -45 -102q-28 -42 -67 -75q-50 -43 -117 -74q-75 -35 -159 -51q-116 -22 -239 -22q-126 0 -236 23q-94 20 -172.5 62t-124.5 94q-37 42 -59 105q-25 70 -25 156q0 30 2 77.5t7 122.5l9 141q5 66 11 194l10 217q4 89 7 197zM548 1503q62 114 118 229q88 -1 161 -1
q47 0 150 1q44 -104 106 -229q-53 2 -86 2q-23 0 -83 -2l-91 131l-100 -131q-40 2 -84 2q-51 0 -91 -2z" />
    <glyph glyph-name="Udieresis" unicode="&#xdc;" horiz-adv-x="1538" 
d="M173 1365q116 -2 157 -2q51 0 152 2l-47 -807q-1 -14 -1 -30q0 -135 38.5 -203t113 -99t170.5 -31q61 0 116 14q45 12 82 33q30 18 53 42q27 29 45 67q19 37 28 84q13 71 24 247l21 348q7 152 11 335q113 -2 168 -2l146 2l-31 -482l-20 -383q-9 -134 -28 -200
q-16 -55 -45 -102q-28 -42 -67 -75q-50 -43 -117 -74q-75 -35 -159 -51q-116 -22 -239 -22q-126 0 -236 23q-94 20 -172.5 62t-124.5 94q-37 42 -59 105q-25 70 -25 156q0 30 2 77.5t7 122.5l9 141q5 66 11 194l10 217q4 89 7 197zM892 1538l9 162q66 -2 104 -2t100 2
l-6 -162q-60 2 -99 2q-34 0 -108 -2zM554 1538l8 162q67 -2 105 -2t100 2q-2 -21 -6 -162q-60 2 -99 2q-34 0 -108 -2z" />
    <glyph glyph-name="Yacute" unicode="&#xdd;" horiz-adv-x="1201" 
d="M395 0q12 111 24.5 290t14.5 285l-448 790q113 -2 176 -2q60 0 160 2q45 -104 131 -263.5t148 -292.5l297 480q15 25 44 76q97 -2 172 -2q39 0 161 2l-546 -811l-12 -253q-6 -112 -9 -301q-107 2 -156 2q-50 0 -157 -2zM525 1492l37 92q11 30 27 72t31 79q81 -2 149 -2
q56 0 150 2q-67 -83 -100 -130l-83 -113q-53 2 -108 2q-49 0 -103 -2z" />
    <glyph glyph-name="Thorn" unicode="&#xde;" horiz-adv-x="1206" 
d="M120 0l21 294l24 504l10 352q1 51 1 102q0 36 -1 113q85 -2 144 -2q61 0 143 2q-9 -104 -11 -191q56 2 147 2l157 2q98 0 170 -16t129.5 -65t88 -121t30.5 -159q0 -129 -64.5 -234.5t-178.5 -157.5t-254 -52q-67 0 -144 14q-22 103 -50 194q61 -12 123 -12q82 0 143.5 25
t97.5 81.5t36 126.5q0 43 -15.5 78t-43.5 56t-62 28.5t-94 7.5l-71 -1l-71 -1l-33 -1l-51 -2l-6 -110q-2 -33 -6 -173l-12 -499q-2 -121 -2 -185l-145 2q-28 0 -150 -2z" />
    <glyph glyph-name="germandbls" unicode="&#xdf;" horiz-adv-x="1247" 
d="M93 0l17 180l33 554q10 253 15 299q9 82 31 134q19 45 50 78q40 42 100.5 76t128.5 49q84 19 187 19q85 0 162.5 -15.5t132 -54.5t77 -91.5t22.5 -118.5q0 -44 -6.5 -78t-13.5 -49.5t-24 -32t-38 -31t-61 -36t-54.5 -32.5t-21 -23t-6.5 -29q0 -36 23.5 -62t78 -60.5
t103.5 -73.5t85 -85t52 -95t16 -109q0 -106 -50 -184t-138 -115.5t-190 -37.5q-41 0 -105 7t-134 24q-4 71 -18 214q115 -39 188 -39q42 0 80 18.5t64 54t26 92.5q0 27 -6.5 51t-20 48.5t-35.5 48.5t-40.5 40t-72.5 59l-48 38q-9 7 -24.5 23.5t-27 38t-15.5 46.5t-4 50
q0 30 6.5 58t19 47t29.5 31t49.5 22.5t45 18t22 20.5t14.5 34.5t5 46.5q0 50 -20 78.5t-55 42.5t-81 14q-44 0 -81 -11q-26 -7 -47 -21q-21 -15 -39 -37q-18 -23 -27 -48q-13 -35 -18 -94q-9 -109 -20 -324l-18 -348q-9 -183 -11 -320q-81 2 -146 2q-58 0 -146 -2z" />
    <glyph glyph-name="agrave" unicode="&#xe0;" horiz-adv-x="1161" 
d="M177 794q14 72 17.5 101t12.5 88q136 32 240 45t201 13q110 0 202 -25.5t144 -81.5t52 -161q0 -57 -16 -290.5t-19 -482.5q-76 2 -140 2q-61 0 -143 -2q13 121 21 280l13 249q-38 -25 -58 -35t-45 -18.5t-88 -26t-101 -30.5t-68.5 -29.5t-51.5 -37t-30.5 -43t-9.5 -48.5
q0 -42 24.5 -72.5t61.5 -42.5t87 -12q32 0 67.5 5t95.5 25q-21 -57 -49 -170q-71 -12 -113 -15t-78 -3q-126 0 -207 34t-119.5 108t-38.5 149q0 43 15 85t44 77t75 67.5t133 63t230 61.5q38 8 79 19.5t65.5 22.5t42.5 28.5t26.5 36.5t8.5 39q0 39 -25.5 66t-66 37.5
t-89.5 10.5q-182 0 -402 -87zM751 1154q-58 2 -103 2q-59 0 -109 -2l-75 109q-35 51 -97 134q96 -2 151 -2q69 0 148 2l26 -75q12 -36 28 -80z" />
    <glyph glyph-name="aacute" unicode="&#xe1;" horiz-adv-x="1161" 
d="M177 794q14 72 17.5 101t12.5 88q136 32 240 45t201 13q110 0 202 -25.5t144 -81.5t52 -161q0 -57 -16 -290.5t-19 -482.5q-76 2 -140 2q-61 0 -143 -2q13 121 21 280l13 249q-38 -25 -58 -35t-45 -18.5t-88 -26t-101 -30.5t-68.5 -29.5t-51.5 -37t-30.5 -43t-9.5 -48.5
q0 -42 24.5 -72.5t61.5 -42.5t87 -12q32 0 67.5 5t95.5 25q-21 -57 -49 -170q-71 -12 -113 -15t-78 -3q-126 0 -207 34t-119.5 108t-38.5 149q0 43 15 85t44 77t75 67.5t133 63t230 61.5q38 8 79 19.5t65.5 22.5t42.5 28.5t26.5 36.5t8.5 39q0 39 -25.5 66t-66 37.5
t-89.5 10.5q-182 0 -402 -87zM490 1154l37 92q11 30 27 72t31 79q81 -2 149 -2q56 0 150 2q-67 -83 -100 -130l-83 -113q-53 2 -108 2q-49 0 -103 -2z" />
    <glyph glyph-name="acircumflex" unicode="&#xe2;" horiz-adv-x="1161" 
d="M177 794q14 72 17.5 101t12.5 88q136 32 240 45t201 13q110 0 202 -25.5t144 -81.5t52 -161q0 -57 -16 -290.5t-19 -482.5q-76 2 -140 2q-61 0 -143 -2q13 121 21 280l13 249q-38 -25 -58 -35t-45 -18.5t-88 -26t-101 -30.5t-68.5 -29.5t-51.5 -37t-30.5 -43t-9.5 -48.5
q0 -42 24.5 -72.5t61.5 -42.5t87 -12q32 0 67.5 5t95.5 25q-21 -57 -49 -170q-71 -12 -113 -15t-78 -3q-126 0 -207 34t-119.5 108t-38.5 149q0 43 15 85t44 77t75 67.5t133 63t230 61.5q38 8 79 19.5t65.5 22.5t42.5 28.5t26.5 36.5t8.5 39q0 39 -25.5 66t-66 37.5
t-89.5 10.5q-182 0 -402 -87zM356 1161q62 114 118 229q88 -1 161 -1q47 0 150 1q44 -104 106 -229q-53 2 -86 2q-23 0 -83 -2l-91 131l-100 -131q-40 2 -84 2q-51 0 -91 -2z" />
    <glyph glyph-name="atilde" unicode="&#xe3;" horiz-adv-x="1161" 
d="M177 794q14 72 17.5 101t12.5 88q136 32 240 45t201 13q110 0 202 -25.5t144 -81.5t52 -161q0 -57 -16 -290.5t-19 -482.5q-76 2 -140 2q-61 0 -143 -2q13 121 21 280l13 249q-38 -25 -58 -35t-45 -18.5t-88 -26t-101 -30.5t-68.5 -29.5t-51.5 -37t-30.5 -43t-9.5 -48.5
q0 -42 24.5 -72.5t61.5 -42.5t87 -12q32 0 67.5 5t95.5 25q-21 -57 -49 -170q-71 -12 -113 -15t-78 -3q-126 0 -207 34t-119.5 108t-38.5 149q0 43 15 85t44 77t75 67.5t133 63t230 61.5q38 8 79 19.5t65.5 22.5t42.5 28.5t26.5 36.5t8.5 39q0 39 -25.5 66t-66 37.5
t-89.5 10.5q-182 0 -402 -87zM351 1171q1 78 17.5 130t46.5 73.5t68 21.5q13 0 27 -2.5t28 -8t24.5 -11.5t40.5 -25l52 -33q18 -11 34 -19t33 -8q13 0 23.5 5t17.5 16.5t9.5 25.5t5.5 41q42 -2 63 -2t65 2q0 -68 -13.5 -115t-43.5 -78.5t-81 -31.5q-19 0 -37.5 5t-38.5 16
t-70 43t-66 39t-31 7q-17 0 -29.5 -11t-16 -27t-5.5 -53q-39 2 -63 2t-60 -2z" />
    <glyph glyph-name="adieresis" unicode="&#xe4;" horiz-adv-x="1161" 
d="M177 794q14 72 17.5 101t12.5 88q136 32 240 45t201 13q110 0 202 -25.5t144 -81.5t52 -161q0 -57 -16 -290.5t-19 -482.5q-76 2 -140 2q-61 0 -143 -2q13 121 21 280l13 249q-38 -25 -58 -35t-45 -18.5t-88 -26t-101 -30.5t-68.5 -29.5t-51.5 -37t-30.5 -43t-9.5 -48.5
q0 -42 24.5 -72.5t61.5 -42.5t87 -12q32 0 67.5 5t95.5 25q-21 -57 -49 -170q-71 -12 -113 -15t-78 -3q-126 0 -207 34t-119.5 108t-38.5 149q0 43 15 85t44 77t75 67.5t133 63t230 61.5q38 8 79 19.5t65.5 22.5t42.5 28.5t26.5 36.5t8.5 39q0 39 -25.5 66t-66 37.5
t-89.5 10.5q-182 0 -402 -87zM690 1196l9 162q66 -2 104 -2t100 2l-6 -162q-60 2 -99 2q-34 0 -108 -2zM352 1196l8 162q67 -2 105 -2t100 2q-2 -21 -6 -162q-60 2 -99 2q-34 0 -108 -2z" />
    <glyph glyph-name="aring" unicode="&#xe5;" horiz-adv-x="1161" 
d="M177 794q14 72 17.5 101t12.5 88q136 32 240 45t201 13q110 0 202 -25.5t144 -81.5t52 -161q0 -57 -16 -290.5t-19 -482.5q-76 2 -140 2q-61 0 -143 -2q13 121 21 280l13 249q-38 -25 -58 -35t-45 -18.5t-88 -26t-101 -30.5t-68.5 -29.5t-51.5 -37t-30.5 -43t-9.5 -48.5
q0 -42 24.5 -72.5t61.5 -42.5t87 -12q32 0 67.5 5t95.5 25q-21 -57 -49 -170q-71 -12 -113 -15t-78 -3q-126 0 -207 34t-119.5 108t-38.5 149q0 43 15 85t44 77t75 67.5t133 63t230 61.5q38 8 79 19.5t65.5 22.5t42.5 28.5t26.5 36.5t8.5 39q0 39 -25.5 66t-66 37.5
t-89.5 10.5q-182 0 -402 -87zM816 1335q0 -51 -25.5 -95.5t-70.5 -70.5t-96 -26t-96 26t-70.5 70.5t-25.5 95.5t25.5 95.5t70.5 70.5t96 26t96 -26t70.5 -70.5t25.5 -95.5zM710 1333q0 36 -25.5 61t-60.5 25t-60.5 -25t-25.5 -61t25.5 -61.5t60.5 -25.5t60.5 25.5t25.5 61.5
z" />
    <glyph glyph-name="ae" unicode="&#xe6;" horiz-adv-x="1763" 
d="M178 796l17 93q4 26 13 96q82 21 135.5 31t126 17.5t129.5 7.5q77 0 138.5 -11.5t97 -30t55.5 -39.5t44 -65q43 43 73.5 66.5t70 41.5t88.5 28t101 10q118 0 223.5 -47.5t163.5 -139.5t58 -234q0 -56 -10 -107h-710q-1 -26 -1 -46q0 -60 14 -106q14 -48 40 -86
q25 -35 60.5 -60t81.5 -39q54 -15 107 -15q125 0 321 59q-18 -94 -37 -212q-176 -32 -316 -32q-123 0 -224.5 36.5t-167 113.5t-101.5 178t-36 170q0 20 5 62q-32 -30 -47.5 -40.5t-41.5 -21t-60 -20.5q-113 -34 -170 -61.5t-80.5 -61t-23.5 -70.5q0 -35 21.5 -64.5
t63.5 -45t92 -15.5q33 0 81 9.5t101 28.5q-22 -79 -43 -171q-57 -14 -118.5 -20.5t-103.5 -6.5q-113 0 -198 35.5t-129 101t-44 146.5q0 45 14.5 87.5t47 83.5t73 67.5t85 45t147.5 47.5l151 41q44 11 89.5 27t71 45t25.5 68q0 50 -40.5 81t-136.5 31q-70 0 -169.5 -20.5
t-217.5 -66.5zM1002 630h447q0 54 -1.5 71.5t-10 44.5t-26.5 51t-42 40.5t-56.5 26t-70.5 9.5q-52 0 -95.5 -19t-73 -51t-44 -68.5t-27.5 -104.5z" />
    <glyph glyph-name="ccedilla" unicode="&#xe7;" horiz-adv-x="1001" 
d="M897 231q-5 -41 -15 -93t-21 -129q-143 -33 -282 -33q-81 0 -156 15t-139.5 53.5t-113.5 101.5t-73.5 152.5t-24.5 184.5q0 126 40.5 242t118.5 189.5t173.5 100t212.5 26.5q65 0 134 -7.5t163 -30.5l15 -219q-149 51 -260 51q-68 0 -128.5 -23t-104 -72.5t-62 -114.5
t-18.5 -133q0 -95 29.5 -164.5t101.5 -107.5t164 -38q45 0 109.5 11.5t136.5 37.5zM685 -90l-129 -255q-75 1 -146 1q-72 0 -154 -1q97 115 207 259q43 -7 122 -7q47 0 100 3z" />
    <glyph glyph-name="egrave" unicode="&#xe8;" horiz-adv-x="1148" 
d="M1008 227q-13 -59 -37 -212q-108 -23 -182 -31t-149 -8q-131 0 -234.5 26t-181.5 95.5t-115 170.5t-37 212q0 123 43 238.5t120.5 189t176.5 104t207 30.5q102 0 194 -25.5t154.5 -83.5t96 -139.5t33.5 -181.5q0 -47 -10 -97l-733 -1q-2 -37 -2 -59q0 -67 23 -123t67 -95
t105 -57.5t120 -18.5q69 0 149.5 15t191.5 51zM362 631l468 -1q0 48 -3 71t-13.5 52.5t-28.5 52t-42 37.5t-55.5 23t-67.5 8q-42 0 -81.5 -13t-72.5 -38t-53.5 -56t-30.5 -59.5t-20 -76.5zM742 1154q-58 2 -103 2q-59 0 -109 -2l-75 109q-35 51 -97 134q96 -2 151 -2
q69 0 148 2l26 -75q12 -36 28 -80z" />
    <glyph glyph-name="eacute" unicode="&#xe9;" horiz-adv-x="1148" 
d="M1008 227q-13 -59 -37 -212q-108 -23 -182 -31t-149 -8q-131 0 -234.5 26t-181.5 95.5t-115 170.5t-37 212q0 123 43 238.5t120.5 189t176.5 104t207 30.5q102 0 194 -25.5t154.5 -83.5t96 -139.5t33.5 -181.5q0 -47 -10 -97l-733 -1q-2 -37 -2 -59q0 -67 23 -123t67 -95
t105 -57.5t120 -18.5q69 0 149.5 15t191.5 51zM362 631l468 -1q0 48 -3 71t-13.5 52.5t-28.5 52t-42 37.5t-55.5 23t-67.5 8q-42 0 -81.5 -13t-72.5 -38t-53.5 -56t-30.5 -59.5t-20 -76.5zM484 1154l37 92q11 30 27 72t31 79q81 -2 149 -2q56 0 150 2q-67 -83 -100 -130
l-83 -113q-53 2 -108 2q-49 0 -103 -2z" />
    <glyph glyph-name="ecircumflex" unicode="&#xea;" horiz-adv-x="1148" 
d="M1008 227q-13 -59 -37 -212q-108 -23 -182 -31t-149 -8q-131 0 -234.5 26t-181.5 95.5t-115 170.5t-37 212q0 123 43 238.5t120.5 189t176.5 104t207 30.5q102 0 194 -25.5t154.5 -83.5t96 -139.5t33.5 -181.5q0 -47 -10 -97l-733 -1q-2 -37 -2 -59q0 -67 23 -123t67 -95
t105 -57.5t120 -18.5q69 0 149.5 15t191.5 51zM362 631l468 -1q0 48 -3 71t-13.5 52.5t-28.5 52t-42 37.5t-55.5 23t-67.5 8q-42 0 -81.5 -13t-72.5 -38t-53.5 -56t-30.5 -59.5t-20 -76.5zM350 1161q62 114 118 229q88 -1 161 -1q47 0 150 1q44 -104 106 -229q-53 2 -86 2
q-23 0 -83 -2l-91 131l-100 -131q-40 2 -84 2q-51 0 -91 -2z" />
    <glyph glyph-name="edieresis" unicode="&#xeb;" horiz-adv-x="1148" 
d="M1008 227q-13 -59 -37 -212q-108 -23 -182 -31t-149 -8q-131 0 -234.5 26t-181.5 95.5t-115 170.5t-37 212q0 123 43 238.5t120.5 189t176.5 104t207 30.5q102 0 194 -25.5t154.5 -83.5t96 -139.5t33.5 -181.5q0 -47 -10 -97l-733 -1q-2 -37 -2 -59q0 -67 23 -123t67 -95
t105 -57.5t120 -18.5q69 0 149.5 15t191.5 51zM362 631l468 -1q0 48 -3 71t-13.5 52.5t-28.5 52t-42 37.5t-55.5 23t-67.5 8q-42 0 -81.5 -13t-72.5 -38t-53.5 -56t-30.5 -59.5t-20 -76.5zM684 1196l9 162q66 -2 104 -2t100 2l-6 -162q-60 2 -99 2q-34 0 -108 -2zM346 1196
l8 162q67 -2 105 -2t100 2q-2 -21 -6 -162q-60 2 -99 2q-34 0 -108 -2z" />
    <glyph glyph-name="igrave" unicode="&#xec;" horiz-adv-x="547" 
d="M104 0q15 150 21 251q10 160 17.5 369t10.5 397q98 -2 147 -2q45 0 146 2q-14 -174 -22.5 -332t-12.5 -362t-4 -323q-91 2 -146 2q-52 0 -157 -2zM432 1154q-58 2 -103 2q-59 0 -109 -2l-75 109q-35 51 -97 134q96 -2 151 -2q69 0 148 2l26 -75q12 -36 28 -80z" />
    <glyph glyph-name="iacute" unicode="&#xed;" horiz-adv-x="546" 
d="M100 0q15 150 21 251q10 160 17.5 369t10.5 397q98 -2 147 -2q45 0 146 2q-14 -174 -22.5 -332t-12.5 -362t-4 -323q-91 2 -146 2q-52 0 -157 -2zM169 1154l37 92q11 30 27 72t31 79q81 -2 149 -2q56 0 150 2q-67 -83 -100 -130l-83 -113q-53 2 -108 2q-49 0 -103 -2z
" />
    <glyph glyph-name="icircumflex" unicode="&#xee;" horiz-adv-x="547" 
d="M113 0q15 150 21 251q10 160 17.5 369t10.5 397q98 -2 147 -2q45 0 146 2q-14 -174 -22.5 -332t-12.5 -362t-4 -323q-91 2 -146 2q-52 0 -157 -2zM44 1161q62 114 118 229q88 -1 161 -1q47 0 150 1q44 -104 106 -229q-53 2 -86 2q-23 0 -83 -2l-91 131l-100 -131
q-40 2 -84 2q-51 0 -91 -2z" />
    <glyph glyph-name="idieresis" unicode="&#xef;" horiz-adv-x="547" 
d="M132 0q15 150 21 251q10 160 17.5 369t10.5 397q98 -2 147 -2q45 0 146 2q-14 -174 -22.5 -332t-12.5 -362t-4 -323q-91 2 -146 2q-52 0 -157 -2zM399 1197l9 162q66 -2 104 -2t100 2l-6 -162q-60 2 -99 2q-34 0 -108 -2zM61 1197l8 162q67 -2 105 -2t100 2
q-2 -21 -6 -162q-60 2 -99 2q-34 0 -108 -2z" />
    <glyph glyph-name="eth" unicode="&#xf0;" horiz-adv-x="1265" 
d="M462 1449q12 7 54 28.5t66.5 35t50.5 30.5q15 -22 33 -47t28.5 -41t13.5 -20.5t14 -18.5l36 23q13 8 27 18l27 20q14 11 30 20l33 -66q20 -38 36 -62l-74 -48q-17 -11 -44 -26l96 -150q37 -58 76 -114t80 -111q69 -94 94.5 -140.5t40 -110.5t14.5 -138q0 -115 -40 -221
t-114.5 -182.5t-185.5 -114t-237 -37.5q-157 0 -284.5 62.5t-194 184t-66.5 262.5q0 115 36.5 218.5t113.5 178t184 117t222 42.5q68 0 122 -15q-37 55 -77.5 104.5t-54.5 72.5q-45 -29 -69 -47.5t-44 -31.5l-34 67q-19 38 -36 62l19 10q2 2 27 19l26 17q0 1 16 10l28 17
q-7 7 -30 44zM647 835q-87 0 -155.5 -42.5t-102 -126.5t-33.5 -183q0 -87 27.5 -155t90 -110t148.5 -42q88 0 154.5 43.5t100 128t33.5 186.5q0 83 -26 151t-87.5 109t-149.5 41z" />
    <glyph glyph-name="ntilde" unicode="&#xf1;" horiz-adv-x="1311" 
d="M93 0q23 227 38.5 510t17.5 507q92 -2 147 -2q65 0 138 2l-11 -170q31 44 54.5 70t60 51t78 40t93 24t107.5 9q89 0 170.5 -22.5t131.5 -71.5t66 -107t16 -123q0 -27 -3 -86l-21 -437q-4 -91 -5 -194q-79 2 -135 2q-76 0 -153 -2q8 87 20 303.5t12 286.5q0 79 -25 127
t-77.5 73t-113.5 25q-60 0 -112 -23t-90 -67q-40 -45 -62 -111q-23 -70 -34 -231q-10 -143 -16 -383q-77 2 -139 2q-63 0 -153 -2zM411 1171q1 78 17.5 130t46.5 73.5t68 21.5q13 0 27 -2.5t28 -8t24.5 -11.5t40.5 -25l52 -33q18 -11 34 -19t33 -8q13 0 23.5 5t17.5 16.5
t9.5 25.5t5.5 41q42 -2 63 -2t65 2q0 -68 -13.5 -115t-43.5 -78.5t-81 -31.5q-19 0 -37.5 5t-38.5 16t-70 43t-66 39t-31 7q-17 0 -29.5 -11t-16 -27t-5.5 -53q-39 2 -63 2t-60 -2z" />
    <glyph glyph-name="ograve" unicode="&#xf2;" horiz-adv-x="1265" 
d="M647 1041q115 0 220.5 -34.5t179 -102t110.5 -165t37 -205.5q0 -114 -39 -220t-113 -183.5t-184.5 -116t-235.5 -38.5q-116 0 -220.5 34.5t-178.5 103.5t-112.5 168t-38.5 207q0 110 35 210t109.5 178t190.5 121t240 43zM647 835q-87 0 -155.5 -42.5t-102 -126.5
t-33.5 -183q0 -87 27.5 -155t90 -110t148.5 -42q88 0 154.5 43.5t100 128t33.5 186.5q0 83 -26 151t-87.5 109t-149.5 41zM787 1154q-58 2 -103 2q-59 0 -109 -2l-75 109q-35 51 -97 134q96 -2 151 -2q69 0 148 2l26 -75q12 -36 28 -80z" />
    <glyph glyph-name="oacute" unicode="&#xf3;" horiz-adv-x="1265" 
d="M647 1041q115 0 220.5 -34.5t179 -102t110.5 -165t37 -205.5q0 -114 -39 -220t-113 -183.5t-184.5 -116t-235.5 -38.5q-116 0 -220.5 34.5t-178.5 103.5t-112.5 168t-38.5 207q0 110 35 210t109.5 178t190.5 121t240 43zM647 835q-87 0 -155.5 -42.5t-102 -126.5
t-33.5 -183q0 -87 27.5 -155t90 -110t148.5 -42q88 0 154.5 43.5t100 128t33.5 186.5q0 83 -26 151t-87.5 109t-149.5 41zM529 1154l37 92q11 30 27 72t31 79q81 -2 149 -2q56 0 150 2q-67 -83 -100 -130l-83 -113q-53 2 -108 2q-49 0 -103 -2z" />
    <glyph glyph-name="ocircumflex" unicode="&#xf4;" horiz-adv-x="1265" 
d="M647 1041q115 0 220.5 -34.5t179 -102t110.5 -165t37 -205.5q0 -114 -39 -220t-113 -183.5t-184.5 -116t-235.5 -38.5q-116 0 -220.5 34.5t-178.5 103.5t-112.5 168t-38.5 207q0 110 35 210t109.5 178t190.5 121t240 43zM647 835q-87 0 -155.5 -42.5t-102 -126.5
t-33.5 -183q0 -87 27.5 -155t90 -110t148.5 -42q88 0 154.5 43.5t100 128t33.5 186.5q0 83 -26 151t-87.5 109t-149.5 41zM395 1161q62 114 118 229q88 -1 161 -1q47 0 150 1q44 -104 106 -229q-53 2 -86 2q-23 0 -83 -2l-91 131l-100 -131q-40 2 -84 2q-51 0 -91 -2z" />
    <glyph glyph-name="otilde" unicode="&#xf5;" horiz-adv-x="1265" 
d="M647 1041q115 0 220.5 -34.5t179 -102t110.5 -165t37 -205.5q0 -114 -39 -220t-113 -183.5t-184.5 -116t-235.5 -38.5q-116 0 -220.5 34.5t-178.5 103.5t-112.5 168t-38.5 207q0 110 35 210t109.5 178t190.5 121t240 43zM647 835q-87 0 -155.5 -42.5t-102 -126.5
t-33.5 -183q0 -87 27.5 -155t90 -110t148.5 -42q88 0 154.5 43.5t100 128t33.5 186.5q0 83 -26 151t-87.5 109t-149.5 41zM391 1171q1 78 17.5 130t46.5 73.5t68 21.5q13 0 27 -2.5t28 -8t24.5 -11.5t40.5 -25l52 -33q18 -11 34 -19t33 -8q13 0 23.5 5t17.5 16.5t9.5 25.5
t5.5 41q42 -2 63 -2t65 2q0 -68 -13.5 -115t-43.5 -78.5t-81 -31.5q-19 0 -37.5 5t-38.5 16t-70 43t-66 39t-31 7q-17 0 -29.5 -11t-16 -27t-5.5 -53q-39 2 -63 2t-60 -2z" />
    <glyph glyph-name="odieresis" unicode="&#xf6;" horiz-adv-x="1265" 
d="M647 1041q115 0 220.5 -34.5t179 -102t110.5 -165t37 -205.5q0 -114 -39 -220t-113 -183.5t-184.5 -116t-235.5 -38.5q-116 0 -220.5 34.5t-178.5 103.5t-112.5 168t-38.5 207q0 110 35 210t109.5 178t190.5 121t240 43zM647 835q-87 0 -155.5 -42.5t-102 -126.5
t-33.5 -183q0 -87 27.5 -155t90 -110t148.5 -42q88 0 154.5 43.5t100 128t33.5 186.5q0 83 -26 151t-87.5 109t-149.5 41zM729 1196l9 162q66 -2 104 -2t100 2l-6 -162q-60 2 -99 2q-34 0 -108 -2zM391 1196l8 162q67 -2 105 -2t100 2q-2 -21 -6 -162q-60 2 -99 2
q-34 0 -108 -2z" />
    <glyph glyph-name="divide" unicode="&#xf7;" 
d="M535 947l5 76q2 26 3 55l3 77q52 -1 109 -1q56 0 108 1l-11 -208q-56 2 -108 2t-109 -2zM113 794q285 -4 524 -4q241 0 525 4q-7 -71 -11 -182q-294 5 -524 5t-524 -5q8 75 10 182zM502 251l5 75q2 26 3 54l3 80q52 -2 109 -2q56 0 108 2l-11 -209q-56 2 -108 2t-109 -2z
" />
    <glyph glyph-name="oslash" unicode="&#xf8;" horiz-adv-x="1260" 
d="M817 1010l69 120q47 -2 117 -2q55 0 116 2l-112 -196q37 -29 60.5 -52.5t45 -55.5t38.5 -75.5t27 -99.5t10 -119q0 -117 -38 -217.5t-112.5 -176.5t-180 -119.5t-210.5 -43.5q-43 0 -88 7.5t-106 23.5l-70 -121q-92 2 -119 2q-9 0 -120 -2l117 196q-104 81 -146.5 184
t-42.5 214q0 123 39 231t121 180.5t194 112t207 39.5q42 0 85 -8t99 -24zM709 834q-35 7 -67 7q-95 0 -159.5 -47.5t-95.5 -128t-31 -175.5q0 -106 40 -181zM870 708l-307 -520q31 -6 60 -6q81 0 145 39t100 123.5t36 192.5q0 38 -5 72t-11 54t-18 45z" />
    <glyph glyph-name="ugrave" unicode="&#xf9;" horiz-adv-x="1282" 
d="M1134 0q-88 2 -135 2q-59 0 -134 -2l2 166q-28 -42 -49 -67.5t-55 -50t-74 -39t-91.5 -24t-109.5 -9.5q-112 0 -195 32.5t-131.5 98.5t-48.5 189v21l16 258l15 340q1 41 1 102q95 -2 149 -2q57 0 138 2l-33 -456q-3 -53 -4.5 -89.5t-1.5 -52.5q0 -72 21.5 -119.5
t75 -72.5t114.5 -25q58 0 110 22q47 20 80.5 56t56.5 97q17 44 26 122q7 55 13 189q8 162 11 329q99 -2 151 -2q59 0 133 2q-12 -143 -25 -357.5t-18 -354t-8 -305.5zM797 1154q-58 2 -103 2q-59 0 -109 -2l-75 109q-35 51 -97 134q96 -2 151 -2q69 0 148 2l26 -75
q12 -36 28 -80z" />
    <glyph glyph-name="uacute" unicode="&#xfa;" horiz-adv-x="1282" 
d="M1134 0q-88 2 -135 2q-59 0 -134 -2l2 166q-28 -42 -49 -67.5t-55 -50t-74 -39t-91.5 -24t-109.5 -9.5q-112 0 -195 32.5t-131.5 98.5t-48.5 189v21l16 258l15 340q1 41 1 102q95 -2 149 -2q57 0 138 2l-33 -456q-3 -53 -4.5 -89.5t-1.5 -52.5q0 -72 21.5 -119.5
t75 -72.5t114.5 -25q58 0 110 22q47 20 80.5 56t56.5 97q17 44 26 122q7 55 13 189q8 162 11 329q99 -2 151 -2q59 0 133 2q-12 -143 -25 -357.5t-18 -354t-8 -305.5zM539 1154l37 92q11 30 27 72t31 79q81 -2 149 -2q56 0 150 2q-67 -83 -100 -130l-83 -113q-53 2 -108 2
q-49 0 -103 -2z" />
    <glyph glyph-name="ucircumflex" unicode="&#xfb;" horiz-adv-x="1282" 
d="M1134 0q-88 2 -135 2q-59 0 -134 -2l2 166q-28 -42 -49 -67.5t-55 -50t-74 -39t-91.5 -24t-109.5 -9.5q-112 0 -195 32.5t-131.5 98.5t-48.5 189v21l16 258l15 340q1 41 1 102q95 -2 149 -2q57 0 138 2l-33 -456q-3 -53 -4.5 -89.5t-1.5 -52.5q0 -72 21.5 -119.5
t75 -72.5t114.5 -25q58 0 110 22q47 20 80.5 56t56.5 97q17 44 26 122q7 55 13 189q8 162 11 329q99 -2 151 -2q59 0 133 2q-12 -143 -25 -357.5t-18 -354t-8 -305.5zM405 1161q62 114 118 229q88 -1 161 -1q47 0 150 1q44 -104 106 -229q-53 2 -86 2q-23 0 -83 -2l-91 131
l-100 -131q-40 2 -84 2q-51 0 -91 -2z" />
    <glyph glyph-name="udieresis" unicode="&#xfc;" horiz-adv-x="1282" 
d="M1134 0q-88 2 -135 2q-59 0 -134 -2l2 166q-28 -42 -49 -67.5t-55 -50t-74 -39t-91.5 -24t-109.5 -9.5q-112 0 -195 32.5t-131.5 98.5t-48.5 189v21l16 258l15 340q1 41 1 102q95 -2 149 -2q57 0 138 2l-33 -456q-3 -53 -4.5 -89.5t-1.5 -52.5q0 -72 21.5 -119.5
t75 -72.5t114.5 -25q58 0 110 22q47 20 80.5 56t56.5 97q17 44 26 122q7 55 13 189q8 162 11 329q99 -2 151 -2q59 0 133 2q-12 -143 -25 -357.5t-18 -354t-8 -305.5zM740 1196l9 162q66 -2 104 -2t100 2l-6 -162q-60 2 -99 2q-34 0 -108 -2zM402 1196l8 162q67 -2 105 -2
t100 2q-2 -21 -6 -162q-60 2 -99 2q-34 0 -108 -2z" />
    <glyph glyph-name="yacute" unicode="&#xfd;" horiz-adv-x="1104" 
d="M-25 -460q-18 150 -29 216q96 -45 181 -45q26 0 53 6.5t50 18.5q15 8 30.5 23t42.5 55t47 79q16 33 33 83l-208 609l-152 432q105 -2 151 -2q53 0 139 2q21 -83 39 -144l95 -314q44 -145 63 -218q12 -48 28 -127q30 91 52 148q39 104 109 278l97 239q26 64 53 138
q90 -2 137 -2q43 0 144 2l-385 -863l-167 -381q-35 -74 -67 -115q-26 -35 -57 -60q-30 -24 -64 -40q-43 -20 -93 -32q-57 -12 -115 -12q-33 0 -92 6t-115 20zM448 1154l37 92q11 30 27 72t31 79q81 -2 149 -2q56 0 150 2q-67 -83 -100 -130l-83 -113q-53 2 -108 2
q-49 0 -103 -2z" />
    <glyph glyph-name="thorn" unicode="&#xfe;" horiz-adv-x="1280" 
d="M82 -459l23 306l27 528l17 447l12 543q80 -2 141 -2t142 2q-22 -269 -25 -382q70 32 147 46t142 14q147 0 265 -64t176.5 -187t58.5 -271q0 -108 -30.5 -208t-92.5 -179.5t-145.5 -118.5t-189.5 -39q-60 0 -118 14.5t-101.5 37t-71 46t-70.5 70.5l-15 -435l-1 -68
q-1 -13 -1 -100q-92 1 -142 1zM415 800q-5 -42 -6 -62l-8 -188l-1 -58q0 -61 12 -117t49 -103t88 -71.5t108 -24.5q79 0 141 42.5t97 126t35 181.5q0 106 -37.5 179t-100.5 105.5t-143 32.5q-105 0 -234 -43z" />
    <glyph glyph-name="ydieresis" unicode="&#xff;" horiz-adv-x="1104" 
d="M-25 -460q-18 150 -29 216q96 -45 181 -45q26 0 53 6.5t50 18.5q15 8 30.5 23t42.5 55t47 79q16 33 33 83l-208 609l-152 432q105 -2 151 -2q53 0 139 2q21 -83 39 -144l95 -314q44 -145 63 -218q12 -48 28 -127q30 91 52 148q39 104 109 278l97 239q26 64 53 138
q90 -2 137 -2q43 0 144 2l-385 -863l-167 -381q-35 -74 -67 -115q-26 -35 -57 -60q-30 -24 -64 -40q-43 -20 -93 -32q-57 -12 -115 -12q-33 0 -92 6t-115 20zM648 1196l9 162q66 -2 104 -2t100 2l-6 -162q-60 2 -99 2q-34 0 -108 -2zM310 1196l8 162q67 -2 105 -2t100 2
q-2 -21 -6 -162q-60 2 -99 2q-34 0 -108 -2z" />
    <glyph glyph-name="dotlessi" unicode="&#x131;" horiz-adv-x="546" 
d="M100 0q15 150 21 251q10 160 17.5 369t10.5 397q98 -2 147 -2q45 0 146 2q-14 -174 -22.5 -332t-12.5 -362t-4 -323q-91 2 -146 2q-52 0 -157 -2z" />
    <glyph glyph-name="Lslash" unicode="&#x141;" horiz-adv-x="1100" 
d="M787 1097q-7 -96 -8 -137l-3 -111q-53 -34 -322 -238q-7 -122 -15 -399l172 -2q242 0 318.5 1.5t149.5 5.5q-8 -98 -16 -217q-262 2 -449 2l-316 -1l-188 -1l18 192q7 81 15 252q-51 -39 -91 -72t-63 -50q8 104 12 248q31 21 78 56l80 58l18 506l1 88l1 87q103 -2 171 -2
q45 0 146 2q-17 -247 -29 -521q207 159 320 253z" />
    <glyph glyph-name="lslash" unicode="&#x142;" horiz-adv-x="573" 
d="M4 382q11 122 15 257q11 7 138 99q15 294 20 627q105 -2 149 -2q58 0 144 2l-6 -74q-2 -27 -7 -125l-15 -271l146 115q-12 -125 -13 -255q-37 -25 -83 -59l-63 -47l-22 -649q-83 2 -139 2q-20 0 -153 -2l7 92q3 42 5 86l16 314z" />
    <glyph glyph-name="OE" unicode="&#x152;" horiz-adv-x="2148" 
d="M2016 223l-3 -114v-109q-292 1 -507 1q-234 0 -298 -2t-200 -7.5t-202 -5.5q-117 0 -226 23t-199.5 76.5t-157 137.5t-102.5 198.5t-36 236.5q0 130 38 252t108.5 214t169 150t218 81.5t252.5 23.5q50 0 211 -7t460 -7h527l-6 -100q-2 -27 -5 -116q-140 6 -270 6
q-49 0 -158 -1t-212 -1l-16 -360q109 -1 251 -1q169 0 310 8q-8 -120 -10 -213q-111 2 -190 2q-74 0 -144 -1l-228 -5l-15 -370q110 -3 171 -3q306 0 469 13zM1086 209l39 948q-160 14 -241 14q-166 0 -274 -65t-164 -188.5t-56 -262.5q0 -128 50 -235.5t152.5 -166
t258.5 -58.5q50 0 96 4z" />
    <glyph glyph-name="oe" unicode="&#x153;" horiz-adv-x="1963" 
d="M1822 223q-19 -98 -33 -207q-132 -25 -201 -32.5t-129 -7.5q-51 0 -101 7t-92.5 20t-76 30t-61 38.5t-48.5 46.5t-52 77q-58 -73 -99 -109.5t-90 -60.5t-111 -36.5t-130 -12.5q-118 0 -216 37t-171.5 109t-106 163.5t-32.5 196.5q0 116 38.5 223.5t114.5 183.5t180.5 114
t216.5 38q66 0 127.5 -13t108.5 -33t81 -44.5t58 -52t56 -77.5q25 37 43 60.5t47 49.5t61 45.5t71 33.5t87 22.5t100 8.5q92 0 177.5 -27.5t147.5 -86t94 -139t32 -175.5q0 -45 -9 -96l-725 -1q-1 -31 -1 -54q0 -92 43 -163t110.5 -107.5t162.5 -36.5q56 0 119.5 11.5
t208.5 56.5zM1187 629l462 1q0 41 -5 75t-19 62.5t-39.5 51.5t-63.5 36.5t-83 13.5q-55 0 -101.5 -19t-76.5 -50t-45 -67t-29 -104zM646 835q-92 0 -162.5 -45.5t-102.5 -124.5t-32 -177q0 -99 30.5 -165.5t95.5 -106.5t150 -40q83 0 151.5 41.5t103 131.5t34.5 187
t-36.5 167t-96.5 101t-135 31z" />
    <glyph glyph-name="Scaron" unicode="&#x160;" horiz-adv-x="1050" 
d="M83 29q-8 152 -21 248q196 -89 356 -89q64 0 119.5 19.5t82 55t26.5 79.5q0 34 -12 61q-18 37 -60 77q-58 55 -207 181q-71 61 -98 87q-60 57 -92 102.5t-46 90.5t-14 96q0 94 52.5 176.5t157 129t263.5 46.5q143 0 322 -35q5 -104 20 -238q-156 60 -288 60
q-98 0 -160.5 -44.5t-62.5 -103.5q0 -16 4 -33.5t12 -34t28.5 -43t60 -62t67.5 -57.5l139 -112q47 -39 84 -76t63.5 -71t41.5 -65t22.5 -63.5t7.5 -68.5q0 -84 -39 -158.5t-112 -122.5t-160 -66.5t-184 -18.5q-64 0 -149 11t-224 42zM862 1732q-62 -113 -118 -229
q-88 2 -161 2q-47 0 -150 -2l-13 32q-9 22 -33 71l-60 126q45 -1 86 -1q34 0 83 1l91 -130l100 130q40 -1 84 -1q52 0 91 1z" />
    <glyph glyph-name="scaron" unicode="&#x161;" horiz-adv-x="898" 
d="M73 19l-22 220q98 -40 166 -55.5t125 -15.5t96 13.5t58 40t19 55.5q0 13 -2.5 24t-9 23t-15 22.5t-23.5 24t-43 34.5l-54 43q-78 61 -119 96t-69 71.5t-42.5 77t-14.5 82.5q0 73 44.5 139t129.5 96.5t200 30.5q131 0 302 -31l13 -209q-116 47 -223 47q-58 0 -101.5 -11.5
t-62.5 -35t-19 -52.5q0 -17 6 -33.5t21 -34.5t34.5 -34t81.5 -63t108.5 -85t76.5 -76.5t46 -82.5t16 -89q0 -75 -46 -139t-139 -100t-208 -36q-60 0 -146 9.5t-184 33.5zM772 1390q-62 -113 -118 -229q-88 2 -161 2q-47 0 -150 -2l-13 32q-9 22 -33 71l-60 126q45 -1 86 -1
q34 0 83 1l91 -130l100 130q40 -1 84 -1q52 0 91 1z" />
    <glyph glyph-name="Ydieresis" unicode="&#x178;" horiz-adv-x="1201" 
d="M395 0q12 111 24.5 290t14.5 285l-448 790q113 -2 176 -2q60 0 160 2q45 -104 131 -263.5t148 -292.5l297 480q15 25 44 76q97 -2 172 -2q39 0 161 2l-546 -811l-12 -253q-6 -112 -9 -301q-107 2 -156 2q-50 0 -157 -2zM712 1538l9 162q66 -2 104 -2t100 2l-6 -162
q-60 2 -99 2q-34 0 -108 -2zM374 1538l8 162q67 -2 105 -2t100 2q-2 -21 -6 -162q-60 2 -99 2q-34 0 -108 -2z" />
    <glyph glyph-name="Zcaron" unicode="&#x17d;" horiz-adv-x="1268" 
d="M45 0q9 136 10 226l47 52q3 3 85 102l490 587l155 192l-66 1h-25l-87 1h-152q-188 0 -367 -11q6 78 6 168q0 17 -1 47q261 -2 554 -2l334 1l182 1q-8 -109 -10 -223l-68 -75q-20 -22 -39 -46l-357 -437l-313 -374l80 -1q338 0 435 2t212 9q-8 -140 -10 -220
q-287 2 -526 2l-369 -1zM955 1732q-62 -113 -118 -229q-88 2 -161 2q-47 0 -150 -2l-13 32q-9 22 -33 71l-60 126q45 -1 86 -1q34 0 83 1l91 -130l100 130q40 -1 84 -1q52 0 91 1z" />
    <glyph glyph-name="zcaron" unicode="&#x17e;" horiz-adv-x="988" 
d="M48 0q4 98 6 221q39 39 51 54l489 552h-52q-133 0 -233.5 -3t-196.5 -9q7 96 7 202q174 -2 326 -2q275 0 467 2q-4 -42 -11 -233l-499 -555l-34 -35q100 -4 168 -4q147 0 202.5 1.5t136.5 5.5q-8 -75 -14 -197q-176 2 -398 2q-237 0 -415 -2zM796 1390
q-62 -113 -118 -229q-88 2 -161 2q-47 0 -150 -2l-13 32q-9 22 -33 71l-60 126q45 -1 86 -1q34 0 83 1l91 -130l100 130q40 -1 84 -1q52 0 91 1z" />
    <glyph glyph-name="florin" unicode="&#x192;" 
d="M804 1079h57q144 0 209 4q-7 -23 -24.5 -98t-20.5 -97q-83 4 -205 4l-55 -1l-134 -691q-22 -110 -37 -165q-24 -91 -51.5 -143.5t-69.5 -87t-98 -53.5q-70 -24 -147 -24q-106 0 -221 35q22 88 33 178q57 -20 84.5 -25t51.5 -5q32 0 58.5 8t48.5 24.5t37.5 40t26.5 56.5
q7 20 17 68q15 65 30 151l115 633h-18q-68 0 -118 -3q25 99 38 195q14 -2 136 -3q15 79 28 134t31.5 98.5t51 80t72.5 60t96 36.5t120 13q108 0 242 -39q-18 -74 -26 -176q-95 31 -160 31q-32 0 -57.5 -6.5t-44.5 -19.5t-35.5 -34.5t-25.5 -44.5t-16.5 -52.5t-18.5 -81.5z
" />
    <glyph glyph-name="circumflex" unicode="&#x2c6;" horiz-adv-x="1024" 
d="M274 1161q62 114 118 229q88 -1 161 -1q47 0 150 1q44 -104 106 -229q-53 2 -86 2q-23 0 -83 -2l-91 131l-100 -131q-40 2 -84 2q-51 0 -91 -2z" />
    <glyph glyph-name="caron" unicode="&#x2c7;" horiz-adv-x="1024" 
d="M815 1390q-62 -113 -118 -229q-88 2 -161 2q-47 0 -150 -2l-13 32q-9 22 -33 71l-60 126q45 -1 86 -1q34 0 83 1l91 -130l100 130q40 -1 84 -1q52 0 91 1z" />
    <glyph glyph-name="macron" unicode="&#x2c9;" horiz-adv-x="1024" 
d="M256 1204q5 69 6 130l77 -3q22 -1 90 -1.5t124 -0.5q131 0 171 1t108 4q-1 -29 -3 -56t-4 -74l-281 2z" />
    <glyph glyph-name="breve" unicode="&#x2d8;" horiz-adv-x="1024" 
d="M283 1390q34 -2 57 -2t56 2q12 -35 23.5 -51.5t29 -28t43.5 -18.5t56 -7t56 7t43.5 19t29 28.5t23.5 50.5q34 -2 56 -2q24 0 57 2q-1 -29 -4.5 -50t-17 -50t-36.5 -54.5t-52.5 -42t-68.5 -26t-86 -9.5q-46 0 -85.5 9.5t-69.5 26.5t-52.5 42t-36 53.5t-17.5 50t-4 50.5z
" />
    <glyph glyph-name="dotaccent" unicode="&#x2d9;" horiz-adv-x="1024" 
d="M432 1192l7 126l2 44q76 -2 110 -2q33 0 104 2l-6 -170q-56 2 -104 2q-44 0 -113 -2z" />
    <glyph glyph-name="ring" unicode="&#x2da;" horiz-adv-x="1024" 
d="M755 1335q0 -51 -25.5 -95.5t-70.5 -70.5t-96 -26t-96 26t-70.5 70.5t-25.5 95.5t25.5 95.5t70.5 70.5t96 26t96 -26t70.5 -70.5t25.5 -95.5zM649 1333q0 36 -25.5 61t-60.5 25t-60.5 -25t-25.5 -61t25.5 -61.5t60.5 -25.5t60.5 25.5t25.5 61.5z" />
    <glyph glyph-name="ogonek" unicode="&#x2db;" horiz-adv-x="1024" 
d="M673 5h130q-80 -65 -80 -135q0 -34 24 -60t70 -26q45 0 96 15q-14 -50 -22 -114q-65 -17 -123 -17q-90 0 -138.5 47.5t-48.5 115.5q0 40 20 81t72 93z" />
    <glyph glyph-name="tilde" unicode="&#x2dc;" horiz-adv-x="1024" 
d="M270 1171q1 78 17.5 130t46.5 73.5t68 21.5q13 0 27 -2.5t28 -8t24.5 -11.5t40.5 -25l52 -33q18 -11 34 -19t33 -8q13 0 23.5 5t17.5 16.5t9.5 25.5t5.5 41q42 -2 63 -2t65 2q0 -68 -13.5 -115t-43.5 -78.5t-81 -31.5q-19 0 -37.5 5t-38.5 16t-70 43t-66 39t-31 7
q-17 0 -29.5 -11t-16 -27t-5.5 -53q-39 2 -63 2t-60 -2z" />
    <glyph glyph-name="hungarumlaut" unicode="&#x2dd;" horiz-adv-x="1024" 
d="M593 1161l63 166l25 70q68 -2 125 -2q64 0 127 2q-63 -84 -100 -136l-69 -100q-39 2 -88 2q-31 0 -83 -2zM268 1161l88 236q67 -2 125 -2q63 0 126 2l-110 -151l-58 -85q-40 2 -88 2q-31 0 -83 -2z" />
    <glyph glyph-name="pi" unicode="&#x3c0;" horiz-adv-x="1231" 
d="M192 0v797h-149v184h1146v-184h-149v-797h-230v797h-387v-797h-231z" />
    <glyph glyph-name="endash" unicode="&#x2013;" 
d="M73 428q9 97 11 202q296 -4 542 -4t543 4q-10 -109 -12 -202q-295 5 -541 5t-543 -5z" />
    <glyph glyph-name="emdash" unicode="&#x2014;" horiz-adv-x="1582" 
d="M-3 428q8 123 9 202l428 -3l362 -1l790 4q-8 -140 -10 -202l-788 5z" />
    <glyph glyph-name="quoteleft" unicode="&#x2018;" horiz-adv-x="447" 
d="M85 1004q32 54 71 118l59 96l85 147l71 -2q16 0 71 2l-50 -150q-34 -100 -68 -211q-85 2 -111 2q-39 0 -128 -2z" />
    <glyph glyph-name="quoteright" unicode="&#x2019;" horiz-adv-x="467" 
d="M449 1365q-33 -56 -71.5 -118t-59.5 -99l-84 -144l-71 2q-16 0 -71 -2l53 158q30 88 65 203l111 -2q18 0 128 2z" />
    <glyph glyph-name="quotesinglbase" unicode="&#x201a;" horiz-adv-x="467" 
d="M364 190q-32 -55 -70 -117l-145 -245l-71 2q-16 0 -71 -2l53 159q30 87 65 203q85 -3 111 -3q39 0 128 3z" />
    <glyph glyph-name="quotedblleft" unicode="&#x201c;" horiz-adv-x="809" 
d="M447 1004q32 54 71 116l145 245l70 -2q16 0 71 2q-79 -235 -118 -361q-84 2 -111 2q-38 0 -128 -2zM85 1004q32 54 71 118l59 96l85 147l71 -2q16 0 71 2l-50 -150q-34 -100 -68 -211q-85 2 -111 2q-39 0 -128 -2z" />
    <glyph glyph-name="quotedblright" unicode="&#x201d;" horiz-adv-x="829" 
d="M811 1365q-32 -54 -71 -117l-144 -244l-71 2q-16 0 -71 -2l47 138q33 99 71 223l111 -2q18 0 128 2zM449 1365q-33 -56 -71.5 -118t-59.5 -99l-84 -144l-71 2q-16 0 -71 -2l53 158q30 88 65 203l111 -2q18 0 128 2z" />
    <glyph glyph-name="quotedblbase" unicode="&#x201e;" horiz-adv-x="795" 
d="M364 190q-32 -55 -70 -117l-145 -245l-71 2q-16 0 -71 -2l53 159q30 87 65 203q85 -3 111 -3q39 0 128 3zM726 190q-31 -55 -70 -117l-145 -245l-71 2q-16 0 -71 -2l53 159q30 87 65 203q85 -3 111 -3q39 0 128 3z" />
    <glyph glyph-name="dagger" unicode="&#x2020;" horiz-adv-x="1164" 
d="M742 919h126l224 4q-9 -104 -10 -205l-196 3l-154 1l-49 -1181q-70 2 -130 2q-61 0 -131 -2l44 939l9 242l-147 -1l-91 -1l-114 -2q9 93 11 205q267 -4 351 -4l17 446q53 -2 131 -2t131 2z" />
    <glyph glyph-name="daggerdbl" unicode="&#x2021;" horiz-adv-x="1164" 
d="M742 919h125l225 4q-9 -105 -11 -205l-195 3l-155 1l-21 -521l121 1l232 3q-4 -40 -7 -103.5t-3 -100.5l-202 3l-151 1l-17 -464q-71 2 -131 2t-130 -2l22 463h-145l-91 -2l-114 -1q10 106 11 204l197 -3l152 -1q4 75 9 216l12 305l-148 -1l-90 -1l-114 -2q9 93 10 205
q267 -4 351 -4l17 446q53 -2 131 -2q79 0 132 2z" />
    <glyph glyph-name="bullet" unicode="&#x2022;" horiz-adv-x="1365" 
d="M964 696q0 -76 -37.5 -143t-103.5 -105t-140 -38q-75 0 -140.5 38.5t-103.5 105.5t-38 142q0 76 37.5 142.5t103.5 105t143 38.5q73 0 138 -38t103 -104.5t38 -143.5z" />
    <glyph glyph-name="ellipsis" unicode="&#x2026;" horiz-adv-x="1591" 
d="M106 0q4 72 11 269l152 -2q20 0 131 2q-5 -73 -8 -147l-6 -122l-131 2q-8 0 -149 -2zM636 0q4 72 11 269l152 -2q21 0 132 2q-5 -57 -9 -148l-5 -121l-132 2q-8 0 -149 -2zM1167 0q4 72 11 269l151 -2q21 0 132 2q-5 -53 -14 -269l-131 2q-9 0 -149 -2z" />
    <glyph glyph-name="perthousand" unicode="&#x2030;" horiz-adv-x="2522" 
d="M403 1380q97 0 167 -47t106.5 -137.5t36.5 -214.5q0 -142 -44 -259.5t-123 -168t-182 -50.5q-74 0 -137 27.5t-103 83t-58 129t-18 152.5q0 133 43 256t126 176t186 53zM394 1240q-47 0 -85.5 -41t-59 -125t-20.5 -184q0 -128 38 -188.5t100 -60.5q24 0 45.5 9.5t43.5 36
t40.5 75t27 107t8.5 120.5q0 125 -39.5 188t-98.5 63zM405 0l397 695l374 670q44 -2 85 -2q36 0 83 2l-274 -477l-413 -739l-78 -149q-45 2 -82 2q-30 0 -92 -2zM1387 861q97 0 165 -42.5t107.5 -131t39.5 -219.5q0 -93 -20.5 -186t-65.5 -164t-113.5 -102t-150.5 -31
q-100 0 -169.5 43.5t-107.5 131.5t-38 218q0 136 44 257.5t126 173.5t183 52zM1381 721q-52 0 -89.5 -44.5t-56.5 -125t-19 -178.5q0 -91 17 -143t48.5 -79.5t72.5 -27.5q24 0 45 9t43 35t40.5 75t26.5 107.5t8 120.5q0 125 -37 188t-99 63zM2167 861q97 0 165 -42.5
t107.5 -131t39.5 -219.5q0 -93 -20.5 -186t-66 -164t-113.5 -102t-150 -31q-100 0 -169.5 43.5t-107.5 131.5t-38 218q0 136 43.5 257.5t126 173.5t183.5 52zM2161 721q-52 0 -89.5 -43.5t-56.5 -125t-19 -179.5q0 -89 16.5 -141.5t48 -80.5t73.5 -28q24 0 45 9t43 35
t40.5 75t26.5 107.5t8 120.5q0 125 -37 188t-99 63z" />
    <glyph glyph-name="quilsinglleft" unicode="&#x2039;" horiz-adv-x="597" 
d="M474 877l-130 -280q-10 -23 -28 -67l85 -233l45 -114q-57 2 -97 2q-39 0 -90 -2l-29 59q-12 26 -41 81l-49 94q-21 39 -58 113q93 155 198 347q59 -2 93 -2q39 0 101 2z" />
    <glyph glyph-name="quilsinglright" unicode="&#x203a;" horiz-adv-x="599" 
d="M115 877q64 -2 101 -2q36 0 93 2q92 -202 167 -347q-39 -67 -101.5 -168.5t-105.5 -178.5q-54 2 -90 2q-43 0 -97 -2l106 222q21 46 54 125l-18 55q-8 23 -40 109z" />
    <glyph glyph-name="Euro" unicode="&#x20ac;" horiz-adv-x="1296" 
d="M1260 1116q-188 58 -308 58q-159 0 -286.5 -67t-196.5 -192h725l-39 -170h-743q-6 -43 -6 -90v-34h722l-38 -170h-646q55 -126 173 -192t280 -66q138 0 340 59l-37 -240q-206 -37 -352 -37q-268 0 -458 123.5t-249 352.5h-133l39 170h72v18q0 54 6 106h-117l39 170h113
q75 231 272 353.5t479 122.5q139 0 336 -39z" />
    <glyph glyph-name="trademark" unicode="&#x2122;" horiz-adv-x="1789" 
d="M764 587q11 84 16 133q11 105 31 357l20 288q71 -2 129 -2q44 0 118 2q11 -57 20.5 -90t36 -113t56.5 -178.5t45 -158.5q22 59 58.5 151t63.5 155q57 132 68.5 165.5t22.5 68.5q64 -2 128 -2q56 0 123 2q-8 -170 -11.5 -363.5t-3.5 -286.5q0 -50 1 -128q-53 1 -87 1
q-43 0 -88 -1l5 83l11 490l-10 -32q-5 -14 -37 -92l-175 -449q-52 1 -83 1q-38 0 -88 -1q-79 287 -119.5 412.5t-47.5 155.5q-6 -48 -14 -174l-14 -213q-6 -88 -7 -181q-55 1 -83 1q-34 0 -85 -1zM265 587q25 286 33 644q-102 -1 -246 -6q4 72 5 140q156 -2 356 -2
q213 0 326 2q-5 -84 -5 -139q-116 6 -209 6h-36l-13 -225l-10 -286q-1 -50 -1 -134q-62 1 -96 1q-39 0 -104 -1z" />
    <glyph glyph-name="Omega" unicode="&#x2126;" horiz-adv-x="1365" 
d="M57 0v213h315q-46 28 -77 50.5t-71.5 62t-72 85t-53.5 99t-34 115t-12 127.5q0 175 82 321.5t225 236t324 89.5q178 0 321 -88t226 -235.5t83 -323.5q0 -66 -12 -127.5t-34 -115t-54 -99.5t-71.5 -85t-70.5 -61t-78 -51h315v-213h-545v196q51 28 81 50q47 35 85 81
q46 56 78 121t44.5 126.5t12.5 134.5q0 152 -58.5 257t-140 161.5t-182.5 56.5t-184.5 -57.5t-140.5 -163t-57 -252.5q0 -172 76.5 -305.5t224.5 -209.5v-196h-545z" />
    <glyph glyph-name="partialdiff" unicode="&#x2202;" horiz-adv-x="1024" 
d="M142 1173l28 192q209 -24 349.5 -86.5t246 -176t158 -260t52.5 -323.5q0 -89 -16 -169.5t-59 -151.5t-105 -120.5t-135 -73t-150 -23.5q-126 0 -233 59.5t-168.5 168t-61.5 235.5q0 117 54.5 222.5t152.5 163t208 57.5q60 0 113 -15t79 -32.5t79 -67.5l-67 127
q-12 21 -29 42q-28 34 -60 63q-26 24 -48 39q-28 19 -75 41q-57 27 -110 46q-40 15 -82 24q-47 10 -121 19zM753 444q0 71 -29.5 132.5t-87.5 95.5t-123 34q-51 0 -113 -31.5t-97 -98t-35 -138.5q0 -70 33 -133t90.5 -97.5t119.5 -34.5t121 36t90 98.5t31 136.5z" />
    <glyph glyph-name="increment" unicode="&#x2206;" horiz-adv-x="1372" 
d="M46 0l511 1365h254l514 -1365h-1279zM362 213h641l-317 891z" />
    <glyph glyph-name="product" unicode="&#x220f;" horiz-adv-x="1374" 
d="M47 1536h1280v-199h-150v-1650h150v-199h-515v199h143v1650h-536v-1650h140v-199h-512v199h152v1650h-152v199z" />
    <glyph glyph-name="summation" unicode="&#x2211;" horiz-adv-x="1365" 
d="M1256 1536v-503h-222l-26 278h-666l502 -764l-500 -835h683l15 284h232v-508h-1206v258l486 800l-486 733v257h1188z" />
    <glyph glyph-name="minus" unicode="&#x2212;" 
d="M113 794q286 -4 524 -4q241 0 525 4q-7 -71 -11 -182q-294 5 -524 5t-524 -5q8 75 10 182z" />
    <glyph glyph-name="fraction" unicode="&#x2215;" horiz-adv-x="216" 
d="M-346 0l327 575l347 623l90 167q49 -2 76 -2q29 0 80 2l-145 -251l-535 -963l-79 -151q-41 2 -68 2q-37 0 -93 -2z" />
    <glyph glyph-name="periodcentered" unicode="&#x2219;" horiz-adv-x="319" 
d="M9 554q4 73 12 292l164 -3q27 0 143 3q-5 -57 -15 -292l-142 2q-14 0 -162 -2z" />
    <glyph glyph-name="radical" unicode="&#x221a;" horiz-adv-x="1365" 
d="M1365 1694v-205h-363l-402 -1489h-284l-140 554h-176v204h321l71 -258q7 -26 24 -108l20 -94q3 -12 9 -55l85 385l78 279l212 787h545z" />
    <glyph glyph-name="infinity" unicode="&#x221e;" horiz-adv-x="1365" 
d="M687 579q-63 -89 -147.5 -145.5t-187.5 -56.5q-92 0 -166 43.5t-111.5 116.5t-37.5 161q0 95 40 164t115 111t161 42q59 0 111.5 -19.5t112 -68.5t102.5 -113q64 94 149 147.5t186 53.5q92 0 166 -43t111.5 -116t37.5 -161q0 -94 -39.5 -164.5t-112.5 -112t-161 -41.5
q-103 0 -186.5 56t-142.5 146zM771 696q56 -85 108.5 -123t112.5 -38q65 0 110 46t45 116q0 73 -47.5 116.5t-110.5 43.5q-55 0 -108 -36.5t-110 -124.5zM595 696q-52 80 -105.5 120.5t-115.5 40.5q-65 0 -110 -45.5t-45 -116.5q0 -72 47 -116t111 -44q56 0 108.5 37
t109.5 124z" />
    <glyph glyph-name="integral" unicode="&#x222b;" horiz-adv-x="1024" 
d="M131 -491l44 229q30 -13 49.5 -16.5t36.5 -3.5q31 0 56 11.5t38.5 29.5t18.5 38.5t6 58.5t1 138v991q0 191 3 231q5 72 22 121q15 42 45 80t69.5 64t92.5 40.5t119 14.5q30 0 64 -3.5t97 -17.5l-44 -229q-30 13 -49 16.5t-37 3.5q-34 0 -58 -11t-39 -32.5t-19.5 -52
t-4.5 -118.5v-1048v-193q-2 -64 -14.5 -120.5t-41 -100t-71 -73t-96.5 -45.5q-69 -19 -157 -19q-87 0 -131 16z" />
    <glyph glyph-name="approxequal" unicode="&#x2248;" horiz-adv-x="1024" 
d="M147 713l-129 89q16 37 31.5 66.5t42 67.5t47.5 58.5t49.5 37t60.5 25t66 8.5q30 0 59.5 -7t79.5 -26t92 -39l86 -38q21 -8 42.5 -13t41.5 -5q28 0 54 10t47.5 31t58.5 78l129 -89q-26 -62 -45 -95t-48.5 -66t-63 -54.5t-74.5 -33t-86 -11.5q-19 0 -37 3.5t-50 14
t-45 16.5l-103 47q-30 13 -61 25t-53 16t-37 4q-38 0 -73.5 -24t-81.5 -96zM147 302l-129 90q16 37 31.5 66.5t42 67.5t47.5 58t50 36.5t60.5 25.5t65.5 9q30 0 59.5 -7t77.5 -25.5t109.5 -46t80 -35t37.5 -11.5t37 -4q28 0 54 10.5t47.5 31.5t58.5 77l129 -88
q-26 -62 -45 -95t-48.5 -66.5t-63 -54.5t-74 -32.5t-86.5 -11.5q-18 0 -36.5 3.5t-48 13t-42.5 15t-86.5 39t-109.5 44.5t-63 11q-38 0 -73.5 -24t-81.5 -97z" />
    <glyph glyph-name="notequal" unicode="&#x2260;" 
d="M626 952l100 291q27 -10 94 -29.5t90 -24.5l-87 -237l354 4q-7 -59 -11 -182l-405 4l-53 -150l449 4q-7 -70 -11 -181l-498 4l-107 -312q-31 11 -93 29t-91 25l94 257l-172 -1l-181 -2q8 75 10 181q169 -2 286 -2l119 -1l53 149l-198 -1l-250 -3q8 84 11 182l211 -2
q237 -2 286 -2z" />
    <glyph glyph-name="lessequal" unicode="&#x2264;" horiz-adv-x="1024" 
d="M955 1289v-240l-607 -218l606 -217l1 -240l-887 349v216zM955 317v-225h-887v225h887z" />
    <glyph glyph-name="greaterequal" unicode="&#x2265;" horiz-adv-x="1024" 
d="M68 374l1 240l606 217l-607 218v240l887 -350v-216zM68 92v225h887v-225h-887z" />
    <glyph glyph-name="lozenge" unicode="&#x25ca;" horiz-adv-x="1365" 
d="M683 1419l531 -736l-531 -736l-532 736zM683 1238l-404 -555l404 -554l403 554z" />
    <glyph glyph-name="fi" unicode="&#xf001;" horiz-adv-x="1211" 
d="M137 0l12 165l30 650h-124q3 30 6.5 97.5t4.5 98.5h136v40q0 107 9 163.5t34 93t69 62.5t96.5 35.5t107.5 9.5q116 0 230 -32q2 -113 11 -192q-87 34 -163 34q-31 0 -57 -8t-42 -21t-27 -33.5t-15 -49.5t-4 -65v-37h255q-6 -69 -12 -196h-240q-19 -398 -29 -815
q-91 2 -145 2q-55 0 -143 -2zM819 1191q4 95 4 158v32q92 -2 148 -2q78 0 145 2q-2 -25 -3 -55l-3 -68q-2 -37 -2 -67q-77 2 -141 2q-63 0 -148 -2zM765 0q15 150 21 251q10 160 18 369t10 397q99 -2 148 -2q44 0 146 2q-15 -170 -23 -327t-12.5 -363.5t-4.5 -326.5
q-91 2 -145 2q-53 0 -158 -2z" />
    <glyph glyph-name="fl" unicode="&#xf002;" horiz-adv-x="1208" 
d="M137 0l12 165l30 650h-124q3 30 6.5 97.5t4.5 98.5h136v40q0 107 9 163.5t34 93t69 62.5t96.5 35.5t107.5 9.5q116 0 230 -32q2 -113 11 -192q-87 34 -163 34q-31 0 -57 -8t-42 -21t-27 -33.5t-15 -49.5t-4 -65v-37h255q-6 -69 -12 -196h-240q-19 -398 -29 -815
q-91 2 -145 2q-55 0 -143 -2zM766 0q15 168 36.5 607t25.5 758q105 -2 149 -2q58 0 144 2l-25 -365l-34 -814l-4 -186q-83 2 -139 2q-50 0 -153 -2z" />
  </font>
</defs>
</svg>
